<?xml version="1.0" encoding="UTF-8"?>
<svg xmlns="http://www.w3.org/2000/svg" xmlns:xlink="http://www.w3.org/1999/xlink" version="1.2" >
<font id="Eurostile">
<font-face  font-family="Eurostile" units-per-em="2048" ascent="1365" descent="-410" font-style="normal" font-weight="400" font-stretch="normal" cap-height="1536" x-height="1024" underline-position="-201" underline-thickness="130" />
<missing-glyph  horiz-adv-x="682" d="M68 0 L68 1365 L614 1365 L614 0 L68 0 Z M546 68 L546 1297 L136 1297 L136 68 L546 68 Z " />
<glyph glyph-name="space" unicode="&#x20;" horiz-adv-x="512" d="" />
<glyph glyph-name="00a0" unicode="&#xa0;" horiz-adv-x="512" d="" />
<glyph glyph-name="A" unicode="A" horiz-adv-x="1246" d="M969 289 L278 289 L173 0 L10 0 L510 1365 L726 1365 L1236 0 L1075 0 L969 289 Z M924 405 L621 1239 L322 405 L924 405 Z " />
<glyph glyph-name="B" unicode="B" horiz-adv-x="1264" d="M130 0 L130 1365 L734 1365 Q985 1365 1062.5 1296 Q1140 1227 1140 1004 Q1140 777 965 717 L965 714 Q1182 662 1182 393 Q1182 176 1096.5 88 Q1011 0 799 0 L130 0 Z M284 765 L689 765 Q882 765 937.5 811 Q993 857 993 1016 Q993 1154 944.5 1194.5 Q896 1235 731 1235 L284 1235 L284 765 Z M284 130 L611 130 L750 131 Q926 131 980.5 176.5 Q1035 222 1035 369 Q1035 552 980 593.5 Q925 635 681 635 L284 635 L284 130 Z " />
<glyph glyph-name="C" unicode="C" horiz-adv-x="1222" d="M1025 456 L1178 456 L1178 404 Q1178 125 1083 55.5 Q988 -14 605 -14 Q262 -14 169 108.5 Q76 231 76 685 Q76 1040 97 1131.5 Q118 1223 217 1295 Q333 1379 718 1379 Q979 1379 1069.5 1298 Q1160 1217 1160 985 L1161 948 L1008 948 L1007 990 Q1007 1155 953.5 1202 Q900 1249 712 1249 Q382 1249 309 1194 Q236 1139 236 889 Q236 314 285 215 Q334 116 620 116 Q892 116 959.5 159 Q1027 202 1027 375 L1025 456 Z " />
<glyph glyph-name="D" unicode="D" horiz-adv-x="1338" d="M130 0 L130 1365 L762 1365 Q1055 1365 1159 1236 Q1263 1107 1263 742 Q1263 298 1170.5 149 Q1078 0 801 0 L130 0 Z M284 130 L729 130 Q974 130 1045 228 Q1116 326 1116 665 Q1116 1037 1054.5 1136 Q993 1235 760 1235 L284 1235 L284 130 Z " />
<glyph glyph-name="E" unicode="E" horiz-adv-x="1020" d="M229 1235 L229 770 L922 770 L922 640 L229 640 L229 130 L952 130 L952 0 L75 0 L75 1365 L952 1365 L952 1235 L229 1235 Z " />
<glyph glyph-name="F" unicode="F" horiz-adv-x="1001" d="M284 1235 L284 758 L949 758 L949 628 L284 628 L284 0 L130 0 L130 1365 L967 1365 L967 1235 L284 1235 Z " />
<glyph glyph-name="G" unicode="G" horiz-adv-x="1268" d="M617 679 L1202 679 Q1206 626 1206 530 Q1206 161 1115.5 73.5 Q1025 -14 643 -14 Q282 -14 179 89.5 Q76 193 76 554 L75 755 L76 876 Q76 1179 190.5 1279 Q305 1379 652 1379 Q1000 1379 1101 1313.5 Q1202 1248 1202 1021 L1202 969 L1051 969 L1051 1003 Q1051 1170 982.5 1209.5 Q914 1249 625 1249 Q358 1249 291 1185.5 Q224 1122 224 868 L222 687 L223 492 Q223 234 297.5 175 Q372 116 695 116 Q942 116 1000.5 172 Q1059 228 1059 465 Q1059 484 1051 549 L617 549 L617 679 Z " />
<glyph glyph-name="H" unicode="H" horiz-adv-x="1365" d="M1236 1365 L1236 0 L1082 0 L1082 633 L284 633 L284 0 L130 0 L130 1365 L284 1365 L284 763 L1082 763 L1082 1365 L1236 1365 Z " />
<glyph glyph-name="I" unicode="I" horiz-adv-x="417" d="M284 1365 L284 0 L130 0 L130 1365 L284 1365 Z " />
<glyph glyph-name="J" unicode="J" horiz-adv-x="1028" d="M898 1365 L898 402 Q898 161 810 73.5 Q722 -14 480 -14 Q235 -14 144 60.5 Q53 135 53 335 Q53 428 56 497 L207 497 L207 472 L207 367 Q207 200 252 158 Q297 116 474 116 Q649 116 696.5 171 Q744 226 744 427 L744 1365 L898 1365 Z " />
<glyph glyph-name="K" unicode="K" horiz-adv-x="1235" d="M284 1365 L284 769 L419 769 L979 1365 L1178 1365 L554 707 L1254 0 L1043 0 L419 639 L284 639 L284 0 L130 0 L130 1365 L284 1365 Z " />
<glyph glyph-name="L" unicode="L" horiz-adv-x="993" d="M284 1365 L284 143 L986 143 L986 0 L130 0 L130 1365 L284 1365 Z " />
<glyph glyph-name="M" unicode="M" horiz-adv-x="1757" d="M1628 1365 L1628 0 L1474 0 L1474 1092 L1474 1174 L1475 1215 L1476 1256 L1472 1256 L1460 1224 Q1451 1200 1448 1193 L1422 1129 L957 0 L803 0 L337 1116 L310 1179 L298 1211 Q293 1222 286 1242 L282 1242 L283 1205 L284 1167 L284 1092 L284 0 L130 0 L130 1365 L397 1365 L761 482 L819 339 L848 268 L876 197 L880 197 L908 268 Q929 319 936 339 L995 481 L1357 1365 L1628 1365 Z " />
<glyph glyph-name="N" unicode="N" horiz-adv-x="1426" d="M1296 1365 L1296 0 L1043 0 L471 929 L378 1082 L332 1158 L286 1234 L282 1234 L283 1183 L284 1131 L284 1029 L284 0 L130 0 L130 1365 L382 1365 L881 551 L1011 337 L1076 231 L1140 124 L1144 124 L1143 175 L1142 227 L1142 329 L1142 1365 L1296 1365 Z " />
<glyph glyph-name="O" unicode="O" horiz-adv-x="1256" d="M629 1379 Q1016 1379 1113 1266 Q1210 1153 1210 701 Q1210 214 1117 100 Q1024 -14 629 -14 Q236 -14 141.5 99 Q47 212 47 683 L47 779 L49 908 Q49 1180 171.5 1279.5 Q294 1379 629 1379 Z M628 1249 Q304 1249 249 1177 Q194 1105 194 683 Q194 260 249 188 Q304 116 628 116 Q953 116 1008 188 Q1063 260 1063 683 L1063 772 L1062 901 Q1062 1127 986 1188 Q910 1249 628 1249 Z " />
<glyph glyph-name="P" unicode="P" horiz-adv-x="1208" d="M130 0 L130 1365 L703 1365 L755 1365 Q986 1365 1070 1276 Q1154 1187 1154 943 Q1154 709 1066.5 624 Q979 539 738 539 L678 538 L284 538 L284 0 L130 0 Z M284 668 L649 668 Q878 668 942.5 715 Q1007 762 1007 931 Q1007 1129 963.5 1181.5 Q920 1234 757 1234 L698 1235 L284 1235 L284 668 Z " />
<glyph glyph-name="Q" unicode="Q" horiz-adv-x="1342" d="M1322 167 L1259 62 L1137 141 Q1027 -14 630 -14 Q225 -14 136.5 100.5 Q48 215 48 738 Q48 1156 149 1267.5 Q250 1379 630 1379 Q1017 1379 1114 1266 Q1211 1153 1211 701 Q1211 362 1186 257 L1322 167 Z M606 489 L677 594 L1050 347 Q1064 420 1064 605 Q1064 1099 1013.5 1174 Q963 1249 629 1249 Q305 1249 250 1177 Q195 1105 195 683 Q195 260 250 188 Q305 116 627 116 Q947 116 1015 221 L606 489 Z " />
<glyph glyph-name="R" unicode="R" horiz-adv-x="1276" d="M130 0 L130 1365 L780 1365 Q1000 1365 1090 1278 Q1180 1191 1180 976 Q1180 787 1131 712.5 Q1082 638 944 616 L944 613 Q1161 597 1161 349 L1161 0 L1007 0 L1007 314 Q1007 553 800 553 L749 553 L284 553 L284 0 L130 0 Z M284 683 L729 683 Q905 683 969 736.5 Q1033 790 1033 938 Q1033 1123 985.5 1179 Q938 1235 782 1235 L284 1235 L284 683 Z " />
<glyph glyph-name="S" unicode="S" horiz-adv-x="1146" d="M1066 995 L913 995 Q913 1160 858 1204.5 Q803 1249 599 1249 Q357 1249 287 1206.5 Q217 1164 217 1017 Q217 852 272 816 Q327 780 599 767 Q918 753 1004.5 686 Q1091 619 1091 386 Q1091 134 991.5 60 Q892 -14 552 -14 Q257 -14 159.5 60.5 Q62 135 62 361 L61 422 L214 422 L214 388 Q214 205 270 160.5 Q326 116 557 116 Q822 116 883 160.5 Q944 205 944 398 Q944 523 902.5 564.5 Q861 606 729 614 L569 622 L417 630 Q70 654 70 990 Q70 1223 171 1301 Q272 1379 574 1379 Q880 1379 973 1306.5 Q1066 1234 1066 995 Z " />
<glyph glyph-name="T" unicode="T" horiz-adv-x="1054" d="M606 1222 L606 0 L452 0 L452 1222 L7 1222 L7 1365 L1047 1365 L1047 1222 L606 1222 Z " />
<glyph glyph-name="U" unicode="U" horiz-adv-x="1341" d="M1058 1365 L1212 1365 L1212 409 Q1212 149 1107.5 67.5 Q1003 -14 669 -14 Q356 -14 243.5 64.5 Q131 143 131 363 L131 409 L131 1365 L285 1365 L285 409 Q285 215 348 165.5 Q411 116 658 116 Q926 116 992 164.5 Q1058 213 1058 409 L1058 1365 Z " />
<glyph glyph-name="V" unicode="V" horiz-adv-x="1171" d="M1016 1365 L1181 1365 L698 0 L478 0 L-10 1365 L154 1365 L518 334 L554 229 Q574 168 587 124 L591 124 Q621 225 658 332 L1016 1365 Z " />
<glyph glyph-name="W" unicode="W" horiz-adv-x="2045" d="M2041 1365 L1611 0 L1377 0 L1090 983 L1054 1106 Q1051 1116 1037 1167 L1019 1229 L1016 1229 L999 1167 L981 1105 L944 981 L652 0 L422 0 L3 1365 L161 1365 L455 384 L495 251 Q500 235 515 185 L534 118 L537 118 L556 185 L575 251 L614 383 L904 1365 L1132 1365 L1420 382 L1459 251 L1477 184 L1496 118 L1499 118 L1519 185 L1539 252 L1580 386 L1880 1365 L2041 1365 Z " />
<glyph glyph-name="X" unicode="X" horiz-adv-x="1190" d="M1167 1365 L731 706 L1200 0 L1018 0 L702 478 L652 553 Q648 559 629 590 L605 628 L601 628 L577 589 Q557 560 552 551 L500 475 L179 0 L-10 0 L478 706 L29 1365 L215 1365 L518 910 L560 846 Q568 834 581 814 L601 782 L605 782 L625 813 Q641 840 645 845 L686 908 L985 1365 L1167 1365 Z " />
<glyph glyph-name="Y" unicode="Y" horiz-adv-x="1152" d="M1163 1365 L647 570 L647 0 L493 0 L493 570 L-10 1365 L169 1365 L462 904 L518 815 Q529 799 546 771 L573 726 L577 726 Q595 756 604 771 L631 815 L688 904 L980 1365 L1163 1365 Z " />
<glyph glyph-name="Z" unicode="Z" horiz-adv-x="1161" d="M1095 1365 L1095 1235 L236 133 L236 130 L1113 130 L1113 0 L48 0 L48 133 L905 1232 L905 1235 L73 1235 L73 1365 L1095 1365 Z " />
<glyph glyph-name="AE" unicode="&#xc6;" horiz-adv-x="1902" d="M1120 1235 L1120 767 L1802 767 L1802 637 L1120 637 L1120 130 L1834 130 L1834 0 L966 0 L966 287 L329 287 L173 0 L-9 0 L750 1365 L1834 1365 L1834 1235 L1120 1235 Z M966 417 L966 1235 L842 1235 L401 417 L966 417 Z " />
<glyph glyph-name="OE" unicode="&#x152;" horiz-adv-x="2020" d="M1233 1223 L1233 770 L1922 770 L1922 640 L1233 640 L1233 135 L1952 135 L1952 5 L1084 5 L1088 135 L1084 135 Q992 -14 675 -14 Q297 -14 186.5 85 Q76 184 76 523 Q76 1048 116 1153 Q202 1379 631 1379 Q996 1379 1084 1223 L1088 1223 L1084 1353 L1952 1353 L1952 1223 L1233 1223 Z M581 1249 Q322 1249 272.5 1165.5 Q223 1082 223 646 L223 505 Q223 401 233 329 Q250 196 326.5 156 Q403 116 638 116 Q924 116 999 175 Q1074 234 1074 459 L1075 674 L1079 884 L1072 1025 Q1056 1173 973.5 1211 Q891 1249 581 1249 Z " />
<glyph glyph-name="Oslash" unicode="&#xd8;" horiz-adv-x="1289" d="M20 7 L20 159 L96 232 Q62 348 62 701 Q62 1160 160 1269.5 Q258 1379 670 1379 Q1041 1379 1139 1242 L1268 1367 L1268 1215 L1189 1138 Q1226 1020 1226 732 Q1226 212 1138.5 99 Q1051 -14 648 -14 Q257 -14 145 129 L20 7 Z M256 235 Q298 152 366.5 134 Q435 116 708 116 Q941 116 1009.5 184.5 Q1078 253 1078 487 L1079 814 L1071 959 Q1069 978 1062 1015 L256 235 Z M1031 1138 Q991 1213 922 1231 Q853 1249 605 1249 Q333 1249 271 1179 Q209 1109 209 801 Q209 474 224 357 L1031 1138 Z " />
<glyph glyph-name="Ccedilla" unicode="&#xc7;" horiz-adv-x="1222" d="M1025 456 L1178 456 L1178 404 Q1178 125 1083 55.5 Q988 -14 605 -14 Q262 -14 169 108.5 Q76 231 76 685 Q76 1040 97 1131.5 Q118 1223 217 1295 Q333 1379 718 1379 Q979 1379 1069.5 1298 Q1160 1217 1160 985 L1161 948 L1008 948 L1007 990 Q1007 1155 953.5 1202 Q900 1249 712 1249 Q382 1249 309 1194 Q236 1139 236 889 Q236 314 285 215 Q334 116 620 116 Q892 116 959.5 159 Q1027 202 1027 375 L1025 456 Z M641 -100 L753 -163 L593 -387 L502 -338 L641 -100 Z " />
<glyph glyph-name="a" unicode="a" horiz-adv-x="1044" d="M269 688 L130 688 Q130 855 205.5 912.5 Q281 970 501 970 Q740 970 824 899.5 Q908 829 908 631 L908 0 L768 0 L779 103 L776 104 Q696 -14 451 -14 Q89 -14 89 277 Q89 450 170 516 Q251 582 463 582 Q715 582 765 483 L768 484 L768 600 Q768 764 723 812.5 Q678 861 526 861 Q268 861 268 716 Q268 709 269 688 Z M494 473 Q333 473 284.5 439 Q236 405 236 293 Q236 177 284 139.5 Q332 102 479 102 Q775 102 775 282 Q775 395 717.5 434 Q660 473 494 473 Z " />
<glyph glyph-name="b" unicode="b" horiz-adv-x="1047" d="M123 0 L123 1365 L263 1365 L263 834 L266 831 Q314 970 580 970 Q790 970 870 861 Q950 752 950 466 Q950 195 865.5 90.5 Q781 -14 560 -14 Q335 -14 260 119 L256 118 L263 0 L123 0 Z M544 854 Q379 854 323 783.5 Q267 713 267 503 Q267 244 317.5 173 Q368 102 550 102 Q704 102 753.5 174.5 Q803 247 803 472 Q803 709 754 781.5 Q705 854 544 854 Z " />
<glyph glyph-name="c" unicode="c" horiz-adv-x="993" d="M780 345 L920 345 L921 293 Q921 -14 519 -14 Q261 -14 178 83 Q95 180 95 483 Q95 767 179.5 868.5 Q264 970 501 970 Q734 970 819 901.5 Q904 833 904 644 L764 644 L764 669 Q764 780 709 817 Q654 854 490 854 Q332 854 287 784 Q242 714 242 470 Q242 232 293.5 167 Q345 102 534 102 Q694 102 737 144.5 Q780 187 780 345 Z " />
<glyph glyph-name="d" unicode="d" horiz-adv-x="1045" d="M922 1365 L922 0 L782 0 L789 124 L785 125 Q719 -14 478 -14 Q258 -14 177.5 93 Q97 200 97 492 Q97 761 178 865.5 Q259 970 468 970 Q729 970 779 835 L782 837 L782 1365 L922 1365 Z M501 854 Q346 854 295 782.5 Q244 711 244 493 Q244 253 294.5 177.5 Q345 102 504 102 Q677 102 729 177.5 Q781 253 781 506 Q781 711 723.5 782.5 Q666 854 501 854 Z " />
<glyph glyph-name="e" unicode="e" horiz-adv-x="1029" d="M788 289 L931 289 L932 254 Q932 105 841.5 45.5 Q751 -14 524 -14 Q260 -14 177.5 82.5 Q95 179 95 488 Q95 774 178 872 Q261 970 503 970 Q767 970 849 885 Q931 800 931 527 L931 452 L243 452 Q243 226 291.5 164 Q340 102 518 102 Q687 102 737.5 131.5 Q788 161 788 259 L788 289 Z M788 561 L787 606 Q787 761 736 807.5 Q685 854 516 854 Q346 854 295.5 799.5 Q245 745 245 561 L788 561 Z " />
<glyph glyph-name="f" unicode="f" horiz-adv-x="543" d="M160 0 L160 840 L14 840 L14 956 L160 956 L160 1098 Q160 1379 449 1379 Q492 1379 550 1372 L550 1256 Q482 1263 451 1263 Q300 1263 300 1111 L300 956 L550 956 L550 840 L300 840 L300 0 L160 0 Z " />
<glyph glyph-name="g" unicode="g" horiz-adv-x="1045" d="M923 956 L923 -62 Q923 -270 833 -348 Q743 -426 503 -426 Q289 -426 211 -360 Q133 -294 133 -113 L268 -113 Q268 -236 313.5 -273 Q359 -310 513 -310 Q673 -310 728 -262 Q783 -214 783 -74 L783 118 L780 119 Q726 -14 468 -14 Q256 -14 176 90.5 Q96 195 96 472 Q96 759 177.5 864.5 Q259 970 480 970 Q715 970 787 826 L790 827 L783 956 L923 956 Z M506 854 Q341 854 292 784.5 Q243 715 243 480 Q243 243 292 172.5 Q341 102 506 102 Q673 102 726 179.5 Q779 257 779 502 Q779 718 726 786 Q673 854 506 854 Z " />
<glyph glyph-name="h" unicode="h" horiz-adv-x="1053" d="M263 1365 L263 838 L266 836 Q319 970 562 970 Q922 970 922 650 L922 611 L922 0 L782 0 L782 611 L782 638 Q782 854 561 854 Q383 854 323 790.5 Q263 727 263 538 L263 0 L123 0 L123 1365 L263 1365 Z " />
<glyph glyph-name="i" unicode="i" horiz-adv-x="385" d="M263 1365 L263 1208 L123 1208 L123 1365 L263 1365 Z M263 956 L263 0 L123 0 L123 956 L263 956 Z " />
<glyph glyph-name="j" unicode="j" horiz-adv-x="381" d="M254 1365 L254 1208 L114 1208 L114 1365 L254 1365 Z M254 956 L254 -88 L254 -129 Q254 -366 57 -366 Q28 -366 -10 -359 L-10 -260 Q2 -258 6 -258 L24 -257 L82 -238 Q114 -211 114 -88 L114 956 L254 956 Z " />
<glyph glyph-name="k" unicode="k" horiz-adv-x="881" d="M263 1365 L263 572 L327 572 L665 956 L841 956 L432 517 L915 0 L726 0 L320 463 L263 463 L263 0 L123 0 L123 1365 L263 1365 Z " />
<glyph glyph-name="l" unicode="l" horiz-adv-x="386" d="M263 1365 L263 0 L123 0 L123 1365 L263 1365 Z " />
<glyph glyph-name="m" unicode="m" horiz-adv-x="1691" d="M123 956 L263 956 L260 812 L263 809 Q344 970 575 970 Q818 970 870 809 L874 809 Q964 970 1203 970 Q1541 970 1541 625 L1541 0 L1401 0 L1401 638 Q1401 764 1356 809 Q1311 854 1186 854 Q1020 854 961 791.5 Q902 729 902 553 L902 0 L762 0 L762 625 L760 669 Q760 854 549 854 Q263 854 263 543 L263 0 L123 0 L123 956 Z " />
<glyph glyph-name="n" unicode="n" horiz-adv-x="1056" d="M123 956 L258 956 L254 826 L258 823 Q322 970 576 970 Q781 970 853.5 898 Q926 826 926 622 L926 0 L786 0 L786 610 L786 646 Q786 769 739 811.5 Q692 854 558 854 Q263 854 263 575 L263 0 L123 0 L123 956 Z " />
<glyph glyph-name="o" unicode="o" horiz-adv-x="1036" d="M518 970 Q783 970 862 878 Q941 786 941 478 Q941 170 862 78 Q783 -14 518 -14 Q254 -14 175 78 Q96 170 96 478 Q96 786 175 878 Q254 970 518 970 Z M518 854 Q332 854 287.5 793.5 Q243 733 243 478 Q243 223 287.5 162.5 Q332 102 518 102 Q705 102 749.5 162.5 Q794 223 794 478 Q794 733 749.5 793.5 Q705 854 518 854 Z " />
<glyph glyph-name="p" unicode="p" horiz-adv-x="1045" d="M123 956 L263 956 L256 835 L260 832 Q333 970 574 970 Q787 970 867 862 Q947 754 947 464 Q947 195 866 90.5 Q785 -14 578 -14 Q342 -14 266 113 L263 113 L263 -410 L123 -410 L123 956 Z M535 854 Q367 854 316 781.5 Q265 709 265 470 Q265 249 320 175.5 Q375 102 541 102 Q699 102 749.5 173 Q800 244 800 466 Q800 710 751 782 Q702 854 535 854 Z " />
<glyph glyph-name="q" unicode="q" horiz-adv-x="1044" d="M922 956 L922 -410 L782 -410 L782 116 L779 119 Q716 -14 465 -14 Q258 -14 177 94 Q96 202 96 479 Q96 756 178 863 Q260 970 473 970 Q707 970 786 835 L789 838 L782 956 L922 956 Z M495 854 Q340 854 291.5 779 Q243 704 243 465 Q243 241 293 171.5 Q343 102 503 102 Q666 102 722 173.5 Q778 245 778 455 Q778 709 726.5 781.5 Q675 854 495 854 Z " />
<glyph glyph-name="r" unicode="r" horiz-adv-x="816" d="M137 956 L277 956 L263 846 L266 843 Q349 978 540 978 Q804 978 804 706 L803 640 L665 640 L668 664 Q671 702 671 715 Q671 862 511 862 Q277 862 277 573 L277 0 L137 0 L137 956 Z " />
<glyph glyph-name="s" unicode="s" horiz-adv-x="970" d="M864 706 L724 706 Q724 806 683.5 830 Q643 854 475 854 Q319 854 277 828.5 Q235 803 235 706 Q235 559 376 552 L489 546 L632 539 Q892 526 892 267 Q892 106 806 46 Q720 -14 491 -14 Q256 -14 167.5 43 Q79 100 79 252 L80 304 L225 304 L226 259 Q226 165 274 133.5 Q322 102 463 102 Q636 102 690.5 135 Q745 168 745 273 Q745 424 608 424 Q289 424 188.5 478 Q88 532 88 702 Q88 863 167.5 916.5 Q247 970 484 970 Q864 970 864 741 L864 706 Z " />
<glyph glyph-name="t" unicode="t" horiz-adv-x="667" d="M630 956 L630 840 L262 840 L262 255 Q262 102 398 102 Q533 102 533 239 L534 286 L536 339 L666 339 L667 268 Q667 -14 399 -14 Q122 -14 122 221 L122 255 L122 840 L-10 840 L-10 956 L122 956 L122 1186 L262 1186 L262 956 L630 956 Z " />
<glyph glyph-name="u" unicode="u" horiz-adv-x="1039" d="M903 956 L903 0 L763 0 L773 125 L770 128 Q697 -14 458 -14 Q123 -14 123 320 L123 956 L263 956 L263 320 Q263 190 306 146 Q349 102 475 102 Q640 102 701.5 167.5 Q763 233 763 408 L763 956 L903 956 Z " />
<glyph glyph-name="v" unicode="v" horiz-adv-x="824" d="M831 956 L511 0 L310 0 L-7 956 L137 956 L306 436 L359 273 L384 191 L410 109 L414 109 L438 190 L462 272 L513 434 L675 956 L831 956 Z " />
<glyph glyph-name="w" unicode="w" horiz-adv-x="1373" d="M1367 956 L1099 0 L891 0 L763 531 L724 693 L706 774 L687 855 L684 855 L665 774 L646 693 L607 531 L478 0 L266 0 L7 956 L154 956 L289 427 L331 261 L351 178 L371 95 L375 95 L394 178 L414 261 L454 426 L585 956 L789 956 L919 425 L959 260 L978 178 L997 95 L1000 95 L1021 178 L1041 261 L1083 427 L1217 956 L1367 956 Z " />
<glyph glyph-name="x" unicode="x" horiz-adv-x="827" d="M797 956 L487 506 L834 0 L667 0 L414 386 L160 0 L-7 0 L340 500 L29 956 L197 956 L414 607 L630 956 L797 956 Z " />
<glyph glyph-name="y" unicode="y" horiz-adv-x="796" d="M802 956 L531 -55 Q474 -269 404.5 -349 Q335 -429 206 -429 Q180 -429 139 -422 L139 -306 Q168 -312 188 -313 Q301 -319 356 -130 L383 -36 Q384 -31 392 0 L339 0 L-7 956 L142 956 L289 530 L363 318 L399 211 L436 105 L440 105 L466 211 L491 318 L545 530 L653 956 L802 956 Z " />
<glyph glyph-name="z" unicode="z" horiz-adv-x="826" d="M92 956 L781 956 L781 820 L211 116 L781 116 L781 0 L44 0 L44 133 L616 840 L92 840 L92 956 Z " />
<glyph glyph-name="ae" unicode="&#xe6;" horiz-adv-x="1697" d="M1599 463 L918 463 L918 423 Q918 211 967 156.5 Q1016 102 1208 102 Q1360 102 1408 133.5 Q1456 165 1456 264 L1457 289 L1599 289 L1599 249 Q1599 -14 1191 -14 Q900 -14 839 147 L836 147 Q774 -14 489 -14 Q89 -14 89 279 Q89 443 173.5 506.5 Q258 570 477 570 Q710 570 773 473 L776 473 L776 635 Q776 773 725.5 817 Q675 861 517 861 Q272 861 272 719 L272 698 L124 698 Q137 866 205.5 918 Q274 970 482 970 Q800 970 851 847 L854 847 Q923 970 1187 970 Q1436 970 1517 883.5 Q1598 797 1598 532 L1599 463 Z M1457 579 L1456 627 Q1456 761 1402.5 807.5 Q1349 854 1195 854 Q1033 854 975.5 804 Q918 754 918 613 L917 579 L1457 579 Z M474 454 Q236 454 236 286 Q236 178 291 140 Q346 102 503 102 Q777 102 777 282 Q777 383 714.5 418.5 Q652 454 474 454 Z " />
<glyph glyph-name="oe" unicode="&#x153;" horiz-adv-x="1714" d="M1617 463 L941 463 L940 409 Q940 216 991 159 Q1042 102 1216 102 Q1378 102 1426 137 Q1474 172 1474 289 L1617 289 Q1617 102 1532.5 44 Q1448 -14 1176 -14 Q933 -14 865 121 L862 121 Q804 -14 512 -14 Q251 -14 173 80.5 Q95 175 95 493 Q95 782 173.5 876 Q252 970 494 970 Q820 970 862 831 L865 831 Q926 970 1205 970 Q1452 970 1534.5 883.5 Q1617 797 1617 539 L1617 463 Z M1474 579 Q1474 748 1425.5 801 Q1377 854 1222 854 Q1046 854 991.5 801.5 Q937 749 937 579 L1474 579 Z M518 854 Q331 854 286.5 793.5 Q242 733 242 478 Q242 223 286.5 162.5 Q331 102 518 102 Q705 102 749.5 162.5 Q794 223 794 478 Q794 732 749.5 793 Q705 854 518 854 Z " />
<glyph glyph-name="oslash" unicode="&#xf8;" horiz-adv-x="1037" d="M59 -33 L59 96 L128 162 Q95 260 95 477 Q95 787 174.5 878.5 Q254 970 523 970 Q786 970 865 870 L977 978 L977 850 L909 784 Q941 689 941 494 Q941 182 864 84 Q787 -14 541 -14 Q262 -14 176 79 L59 -33 Z M278 178 Q321 102 495 102 Q702 102 748 162 Q794 222 794 493 Q794 578 787 667 L278 178 Z M763 772 Q720 854 539 854 Q334 854 288 795.5 Q242 737 242 476 Q242 364 250 279 L763 772 Z " />
<glyph glyph-name="germandbls" unicode="&#xdf;" horiz-adv-x="1073" d="M130 0 L130 1055 L130 1095 Q130 1379 503 1379 Q881 1379 881 1110 Q881 926 703 883 L703 881 Q854 850 905.5 764.5 Q957 679 957 458 Q957 195 886 90.5 Q815 -14 635 -14 Q365 -14 365 272 L366 292 L503 292 L504 263 Q504 102 636 102 Q744 102 777 170 Q810 238 810 458 Q810 675 754.5 747.5 Q699 820 535 820 L457 820 L418 820 L418 941 L450 941 L500 942 Q734 942 734 1087 Q734 1198 689.5 1230.5 Q645 1263 494 1263 Q270 1263 270 1068 L270 0 L130 0 Z " />
<glyph glyph-name="dotlessi" unicode="&#x131;" horiz-adv-x="385" d="M263 956 L263 0 L123 0 L123 956 L263 956 Z " />
<glyph glyph-name="fi" unicode="&#xf001;" horiz-adv-x="935" d="M160 0 L160 840 L14 840 L14 956 L160 956 L160 1098 Q160 1379 449 1379 Q492 1379 550 1372 L550 1256 Q482 1263 451 1263 Q300 1263 300 1111 L300 956 L550 956 L550 840 L300 840 L300 0 L160 0 Z M813 1365 L813 1208 L673 1208 L673 1365 L813 1365 Z M813 956 L813 0 L673 0 L673 956 L813 956 Z " />
<glyph glyph-name="fl" unicode="&#xf002;" horiz-adv-x="935" d="M160 0 L160 840 L14 840 L14 956 L160 956 L160 1098 Q160 1379 449 1379 Q492 1379 550 1372 L550 1256 Q482 1263 451 1263 Q300 1263 300 1111 L300 956 L550 956 L550 840 L300 840 L300 0 L160 0 Z M813 1365 L813 0 L673 0 L673 1365 L813 1365 Z " />
<glyph glyph-name="ccedilla" unicode="&#xe7;" horiz-adv-x="993" d="M780 345 L920 345 L921 293 Q921 -14 519 -14 Q261 -14 178 83 Q95 180 95 483 Q95 767 179.5 868.5 Q264 970 501 970 Q734 970 819 901.5 Q904 833 904 644 L764 644 L764 669 Q764 780 709 817 Q654 854 490 854 Q332 854 287 784 Q242 714 242 470 Q242 232 293.5 167 Q345 102 534 102 Q694 102 737 144.5 Q780 187 780 345 Z M506 -100 L604 -154 L464 -349 L385 -307 L506 -100 Z " />
<glyph glyph-name="one" unicode="1" horiz-adv-x="1257" d="M810 1365 L810 0 L656 0 L656 1250 L307 863 L210 955 L588 1365 L810 1365 Z " />
<glyph glyph-name="two" unicode="2" horiz-adv-x="1256" d="M1094 130 L1094 0 L111 0 L111 257 Q111 473 195 540 Q279 607 594 643 Q846 671 898.5 719 Q951 767 951 968 Q951 1144 892.5 1196.5 Q834 1249 637 1249 Q391 1249 326.5 1206.5 Q262 1164 262 1002 L264 900 L113 900 L114 971 Q114 1216 217.5 1297.5 Q321 1379 632 1379 Q908 1379 1003 1291 Q1098 1203 1098 948 Q1098 703 1009.5 620.5 Q921 538 625 509 Q365 483 315 437 Q265 391 265 176 L265 130 L1094 130 Z " />
<glyph glyph-name="three" unicode="3" horiz-adv-x="1256" d="M500 633 L500 764 L552 763 Q828 763 889.5 798 Q951 833 951 989 Q951 1169 897.5 1209 Q844 1249 602 1249 Q379 1249 326.5 1210 Q274 1171 274 1005 L274 946 L128 946 L129 1000 Q129 1234 220 1306.5 Q311 1379 604 1379 Q905 1379 1001.5 1311.5 Q1098 1244 1098 1033 Q1098 854 1052 788 Q1006 722 868 705 L868 698 Q1023 677 1073.5 614 Q1124 551 1124 380 Q1124 142 1025.5 64 Q927 -14 628 -14 Q305 -14 205 58 Q105 130 105 363 L105 444 L255 444 L255 365 Q255 191 314 153.5 Q373 116 649 116 Q863 116 920 163.5 Q977 211 977 391 Q977 542 923 587.5 Q869 633 688 633 L558 633 L500 633 Z " />
<glyph glyph-name="four" unicode="4" horiz-adv-x="1256" d="M972 1365 L972 445 L1176 445 L1176 315 L972 315 L972 0 L818 0 L818 315 L54 315 L54 496 L734 1365 L972 1365 Z M818 445 L818 1266 L815 1266 L181 445 L818 445 Z " />
<glyph glyph-name="five" unicode="5" horiz-adv-x="1256" d="M1077 1365 L1077 1235 L311 1235 L304 821 L307 821 Q387 934 666 934 Q936 934 1034.5 841 Q1133 748 1133 491 Q1133 177 1039.5 81.5 Q946 -14 641 -14 Q338 -14 235.5 57 Q133 128 133 338 L133 390 L278 390 Q278 205 335.5 160.5 Q393 116 629 116 Q876 116 931 173 Q986 230 986 485 Q986 691 924.5 747.5 Q863 804 639 804 Q327 804 297 673 L158 673 L158 1365 L1077 1365 Z " />
<glyph glyph-name="six" unicode="6" horiz-adv-x="1255" d="M1082 1020 L932 1020 Q936 1057 936 1069 Q936 1178 881 1213.5 Q826 1249 656 1249 Q398 1249 329.5 1205 Q261 1161 261 996 L261 718 L264 718 Q351 840 657 840 Q932 840 1025 756 Q1118 672 1118 424 Q1118 155 1021 70.5 Q924 -14 615 -14 Q300 -14 201 78.5 Q102 171 102 466 L99 714 L103 934 Q103 1204 197 1291.5 Q291 1379 581 1379 Q874 1379 978.5 1314 Q1083 1249 1083 1067 L1082 1020 Z M608 710 Q383 710 314.5 665 Q246 620 246 472 Q246 232 306 174 Q366 116 613 116 Q853 116 912 163 Q971 210 971 404 Q971 612 913 661 Q855 710 608 710 Z " />
<glyph glyph-name="seven" unicode="7" horiz-adv-x="1256" d="M1093 1365 L1093 1169 L432 0 L249 0 L965 1235 L98 1235 L98 1365 L1093 1365 Z " />
<glyph glyph-name="eight" unicode="8" horiz-adv-x="1257" d="M890 709 L890 706 Q1034 677 1078.5 616.5 Q1123 556 1123 391 Q1123 141 1029 63.5 Q935 -14 632 -14 Q299 -14 201.5 57.5 Q104 129 104 373 Q104 552 149 616 Q194 680 341 708 L341 711 Q206 740 164 800.5 Q122 861 122 1027 Q122 1244 214 1311.5 Q306 1379 600 1379 Q924 1379 1016 1313.5 Q1108 1248 1108 1016 Q1108 860 1064.5 799 Q1021 738 890 709 Z M602 1249 Q369 1249 319 1212.5 Q269 1176 269 1007 Q269 842 331 805.5 Q393 769 672 769 Q858 769 909.5 815 Q961 861 961 1026 Q961 1179 904.5 1214 Q848 1249 602 1249 Z M604 639 Q367 639 309 597 Q251 555 251 383 Q251 220 293.5 169.5 Q336 119 474 119 L667 116 L795 124 Q906 138 941 192 Q976 246 976 404 Q976 557 911 598 Q846 639 604 639 Z " />
<glyph glyph-name="nine" unicode="9" horiz-adv-x="1257" d="M104 348 L249 348 L248 308 Q248 182 308 149 Q368 116 594 116 Q852 116 909 166.5 Q966 217 966 446 L966 651 L963 651 Q883 529 553 529 Q293 529 203 612 Q113 695 113 934 Q113 1208 208 1293.5 Q303 1379 607 1379 Q919 1379 1020 1290 Q1121 1201 1121 925 L1125 558 L1122 417 Q1122 155 1023 70.5 Q924 -14 616 -14 Q313 -14 207 48.5 Q101 111 101 291 Q101 307 104 348 Z M593 1249 Q370 1249 315 1200.5 Q260 1152 260 955 Q260 762 314 710.5 Q368 659 572 659 Q837 659 901 700.5 Q965 742 965 913 Q965 1142 906 1195.5 Q847 1249 593 1249 Z " />
<glyph glyph-name="zero" unicode="0" horiz-adv-x="1256" d="M628 1379 Q1007 1379 1085 1277.5 Q1163 1176 1163 683 Q1163 213 1089 113 Q994 -14 628 -14 Q262 -14 167 113 Q93 213 93 732 Q93 1181 175 1280 Q257 1379 628 1379 Z M628 1249 Q341 1249 290.5 1175 Q240 1101 240 683 Q240 264 290.5 190 Q341 116 628 116 Q915 116 965.5 190 Q1016 264 1016 683 Q1016 1101 965.5 1175 Q915 1249 628 1249 Z " />
<glyph glyph-name="sterling" unicode="&#xa3;" horiz-adv-x="1257" d="M805 664 L805 534 L418 534 L418 470 L419 361 L404 239 Q386 178 304 120 L304 117 L1189 127 L1189 0 L127 0 L127 117 Q264 147 264 421 L264 534 L95 534 L95 664 L264 664 L264 872 L262 993 L269 1106 Q306 1379 702 1379 Q968 1379 1066.5 1304 Q1165 1229 1165 1027 L1163 957 L1015 957 L1015 991 Q1015 1160 965 1204.5 Q915 1249 728 1249 Q524 1249 471.5 1204.5 Q419 1160 419 988 L418 938 L418 664 L805 664 Z " />
<glyph glyph-name="dollar" unicode="&#x24;" horiz-adv-x="1257" d="M688 1233 L688 759 Q992 759 1096.5 683 Q1201 607 1201 385 Q1201 164 1101.5 82.5 Q1002 1 732 1 L688 0 L688 -154 L572 -154 L572 0 L473 0 Q397 0 347 4 Q55 27 55 425 L206 425 L206 400 Q206 217 258.5 171.5 Q311 126 524 126 L572 124 L572 629 Q263 629 166 700 Q69 771 69 998 Q69 1217 170.5 1291 Q272 1365 572 1365 L572 1492 L688 1492 L688 1365 L745 1364 Q996 1364 1083 1294.5 Q1170 1225 1170 1026 L1169 983 L1021 983 L1020 1017 Q1020 1157 971.5 1195 Q923 1233 745 1233 L688 1233 Z M572 1235 L525 1235 Q332 1235 274 1193.5 Q216 1152 216 1016 Q216 855 275.5 807.5 Q335 760 536 760 L572 759 L572 1235 Z M688 124 Q725 118 743 116 Q1054 91 1054 385 Q1054 535 991.5 580.5 Q929 626 725 626 L688 627 L688 124 Z " />
<glyph glyph-name="cent" unicode="&#xa2;" horiz-adv-x="1255" d="M662 1005 L662 255 Q876 255 876 444 L877 497 L1017 497 L1016 460 Q1016 139 662 139 L662 -7 L546 -7 L546 139 Q336 139 259.5 248.5 Q183 358 183 658 Q183 1118 546 1118 L546 1251 L662 1251 L662 1118 Q998 1118 998 840 L997 796 L857 796 Q857 923 821.5 961 Q786 999 662 1005 Z M546 1008 Q412 998 371 933.5 Q330 869 330 668 Q330 411 369 337.5 Q408 264 546 257 L546 1008 Z " />
<glyph glyph-name="florin" unicode="&#x192;" horiz-adv-x="1256" d="M752 908 L593 8 Q563 -162 496 -219 Q429 -276 262 -276 Q209 -276 146 -269 L167 -151 Q234 -160 272 -160 Q418 -160 446 -4 L607 908 L419 908 L440 1024 L627 1024 L664 1234 Q694 1404 762 1461 Q830 1518 1004 1518 Q1037 1518 1111 1514 L1090 1396 Q1027 1402 985 1402 Q839 1402 811 1247 L772 1024 L1025 1024 L1004 908 L752 908 Z " />
<glyph glyph-name="yen" unicode="&#xa5;" horiz-adv-x="1257" d="M920 934 L1106 934 L1106 804 L842 804 L717 603 L1106 603 L1106 473 L698 473 L698 0 L544 0 L544 473 L150 473 L150 603 L525 603 L404 804 L150 804 L150 934 L328 934 L69 1365 L248 1365 L624 727 L628 727 L1004 1365 L1187 1365 L920 934 Z " />
<glyph glyph-name="period" unicode="&#x2e;" horiz-adv-x="400" d="M277 184 L277 0 L123 0 L123 184 L277 184 Z " />
<glyph glyph-name="colon" unicode="&#x3a;" horiz-adv-x="400" d="M277 184 L277 0 L123 0 L123 184 L277 184 Z M277 956 L277 772 L123 772 L123 956 L277 956 Z " />
<glyph glyph-name="middot" unicode="&#x2219;" horiz-adv-x="400" d="M277 566 L277 382 L123 382 L123 566 L277 566 Z " />
<glyph glyph-name="ellipsis" unicode="&#x2026;" horiz-adv-x="1223" d="M277 184 L277 0 L123 0 L123 184 L277 184 Z M685 184 L685 0 L531 0 L531 184 L685 184 Z M1100 184 L1100 0 L946 0 L946 184 L1100 184 Z " />
<glyph glyph-name="comma" unicode="&#x2c;" horiz-adv-x="406" d="M283 184 L283 -14 Q283 -201 147 -201 Q134 -201 109 -199 L109 -123 Q195 -118 195 -35 L194 0 L129 0 L129 184 L283 184 Z " />
<glyph glyph-name="semicolon" unicode="&#x3b;" horiz-adv-x="365" d="M242 184 L242 -14 Q242 -201 106 -201 Q93 -201 68 -199 L68 -123 Q154 -118 154 -35 L153 0 L88 0 L88 184 L242 184 Z M232 956 L232 772 L78 772 L78 956 L232 956 Z " />
<glyph glyph-name="quoteleft" unicode="&#x2018;" horiz-adv-x="366" d="M86 1008 L86 1207 Q86 1393 222 1393 Q237 1393 268 1391 L268 1314 Q174 1314 174 1227 L175 1192 L240 1192 L240 1008 L86 1008 Z " />
<glyph glyph-name="quotedblright" unicode="&#x201d;" horiz-adv-x="653" d="M272 1365 L272 1166 Q272 979 136 979 Q124 979 98 981 L98 1058 Q184 1063 184 1146 L183 1181 L118 1181 L118 1365 L272 1365 Z M567 1365 L567 1166 Q567 979 431 979 Q415 979 385 981 L385 1058 Q479 1058 479 1146 L478 1181 L413 1181 L413 1365 L567 1365 Z " />
<glyph glyph-name="quotedblleft" unicode="&#x201c;" horiz-adv-x="653" d="M381 1008 L381 1207 Q381 1393 517 1393 Q528 1393 555 1391 L555 1314 Q469 1309 469 1227 L470 1192 L535 1192 L535 1008 L381 1008 Z M86 1008 L86 1207 Q86 1393 222 1393 Q237 1393 268 1391 L268 1314 Q174 1314 174 1227 L175 1192 L240 1192 L240 1008 L86 1008 Z " />
<glyph glyph-name="quotedblbase" unicode="&#x201e;" horiz-adv-x="653" d="M272 184 L272 -14 Q272 -201 136 -201 Q123 -201 98 -199 L98 -123 Q184 -118 184 -35 L183 0 L118 0 L118 184 L272 184 Z M567 184 L567 -14 Q567 -201 431 -201 Q414 -201 385 -199 L385 -123 Q479 -123 479 -35 L478 0 L413 0 L413 184 L567 184 Z " />
<glyph glyph-name="exclam" unicode="&#x21;" horiz-adv-x="491" d="M322 184 L322 0 L168 0 L168 184 L322 184 Z M328 1365 L308 377 L177 377 L160 1365 L328 1365 Z " />
<glyph glyph-name="exclamdown" unicode="&#xa1;" horiz-adv-x="491" d="M162 772 L162 956 L316 956 L316 772 L162 772 Z M162 -410 L182 579 L313 579 L330 -410 L162 -410 Z " />
<glyph glyph-name="question" unicode="&#x3f;" horiz-adv-x="1064" d="M541 184 L541 0 L387 0 L387 184 L541 184 Z M546 394 L395 394 L396 424 Q396 561 434.5 615 Q473 669 605 719 L688 751 Q814 799 814 993 Q814 1162 767.5 1205.5 Q721 1249 538 1249 Q350 1249 301.5 1203 Q253 1157 253 977 L254 938 L109 938 L110 983 Q110 1227 196.5 1303 Q283 1379 561 1379 Q795 1379 878 1302 Q961 1225 961 1007 Q961 695 768 626 L684 596 Q547 547 547 428 L546 394 Z " />
<glyph glyph-name="questiondown" unicode="&#xbf;" horiz-adv-x="1064" d="M517 772 L517 956 L671 956 L671 772 L517 772 Z M517 562 L668 562 L667 532 Q667 395 629 341 Q591 287 458 237 L375 205 Q249 157 249 -37 Q249 -207 295.5 -250.5 Q342 -294 525 -294 Q713 -294 761.5 -247.5 Q810 -201 810 -21 L810 18 L954 18 L954 -27 Q954 -272 867.5 -348 Q781 -424 502 -424 Q268 -424 185 -347 Q102 -270 102 -51 Q102 262 296 330 L379 360 Q517 408 517 528 L517 562 Z " />
<glyph glyph-name="guillemotright" unicode="&#xbb;" horiz-adv-x="915" d="M566 1047 L812 525 L537 0 L438 66 L676 525 L461 983 L566 1047 Z M230 1047 L476 525 L201 0 L102 66 L340 525 L125 983 L230 1047 Z " />
<glyph glyph-name="guillemotleft" unicode="&#xab;" horiz-adv-x="915" d="M348 1047 L453 983 L238 525 L476 66 L377 0 L102 525 L348 1047 Z M684 1047 L789 983 L574 525 L812 66 L713 0 L438 525 L684 1047 Z " />
<glyph glyph-name="guilsinglright" unicode="&#x203a;" horiz-adv-x="578" d="M230 1047 L476 525 L201 0 L102 66 L340 525 L125 983 L230 1047 Z " />
<glyph glyph-name="guilsinglleft" unicode="&#x2039;" horiz-adv-x="578" d="M348 1047 L453 983 L238 525 L476 66 L377 0 L102 525 L348 1047 Z " />
<glyph glyph-name="slash" unicode="&#x2f;" horiz-adv-x="1323" d="M1179 1365 L-21 -410 L-136 -410 L1065 1365 L1179 1365 Z " />
<glyph glyph-name="&amp;#x2d;" unicode="&#x2d;" horiz-adv-x="425" d="M3 562 L425 562 L425 432 L0 432 L3 562 Z " />
<glyph glyph-name="&amp;#xad;" unicode="&#xad;" horiz-adv-x="425" d="M3 562 L425 562 L425 432 L0 432 L3 562 Z " />
<glyph glyph-name="endash" unicode="&#x2013;" horiz-adv-x="1256" d="M227 562 L1030 562 L1030 432 L227 432 L227 562 Z " />
<glyph glyph-name="emdash" unicode="&#x2014;" horiz-adv-x="1417" d="M9 562 L1417 562 L1417 432 L0 432 L9 562 Z " />
<glyph glyph-name="parenleft" unicode="&#x28;" horiz-adv-x="568" d="M465 -286 L465 -416 L427 -417 Q194 -417 148.5 -292 Q103 -167 103 478 Q103 1123 148.5 1248 Q194 1373 427 1373 L465 1372 L465 1242 Q319 1242 290.5 1169 Q262 1096 262 722 L263 478 L263 233 Q263 -140 291.5 -213 Q320 -286 465 -286 Z " />
<glyph glyph-name="parenright" unicode="&#x29;" horiz-adv-x="568" d="M102 1242 L102 1372 L140 1373 Q373 1373 418.5 1248 Q464 1123 464 478 Q464 -167 418.5 -292 Q373 -417 140 -417 L102 -416 L102 -286 Q247 -286 275.5 -213 Q304 -140 304 233 L304 478 L305 722 Q305 1096 276.5 1169 Q248 1242 102 1242 Z " />
<glyph glyph-name="bracketleft" unicode="&#x5b;" horiz-adv-x="567" d="M113 1365 L462 1365 L462 1249 L267 1249 L267 -294 L462 -294 L462 -410 L113 -410 L113 1365 Z " />
<glyph glyph-name="bracketright" unicode="&#x5d;" horiz-adv-x="567" d="M454 -410 L105 -410 L105 -294 L300 -294 L300 1249 L105 1249 L105 1365 L454 1365 L454 -410 Z " />
<glyph glyph-name="ampersand" unicode="&#x26;" horiz-adv-x="1434" d="M1054 603 L1206 603 L1207 567 L1208 498 Q1208 389 1192 304 L1431 107 L1347 0 L1145 167 Q1060 -14 687 -14 Q327 -14 222 66 Q117 146 117 421 Q117 602 165.5 674 Q214 746 355 775 Q368 778 396 784 Q272 888 272 1023 Q272 1214 357.5 1283.5 Q443 1353 678 1353 Q908 1353 992 1285 Q1076 1217 1076 1031 L1074 946 L923 946 L923 997 Q923 1149 882 1186 Q841 1223 672 1223 Q519 1223 469 1190 Q419 1157 419 1056 Q419 942 506 874 L540 846 L1054 418 L1054 446 L1054 502 L1054 572 L1054 603 Z M492 701 Q337 667 300.5 621.5 Q264 576 264 417 Q264 209 324.5 162.5 Q385 116 658 116 Q985 116 1025 262 L492 701 Z " />
<glyph glyph-name="section" unicode="&#xa7;" horiz-adv-x="1257" d="M1071 1017 L937 1017 L936 1073 Q936 1185 879 1217 Q822 1249 622 1249 Q438 1249 389 1217.5 Q340 1186 340 1068 Q340 920 440 889 L528 863 L834 772 Q1009 721 1054.5 675 Q1100 629 1100 504 Q1100 290 968 235 Q1103 170 1103 -35 Q1103 -257 1012.5 -325 Q922 -393 625 -393 Q333 -393 247 -323 Q161 -253 161 -14 L299 -14 Q299 -181 348.5 -222 Q398 -263 602 -263 Q849 -263 909.5 -227 Q970 -191 970 -45 Q970 52 937.5 85.5 Q905 119 779 153 L358 264 Q233 297 193.5 354.5 Q154 412 154 559 Q154 763 310 799 Q207 865 207 1040 Q207 1248 283.5 1313.5 Q360 1379 605 1379 Q912 1379 991.5 1317.5 Q1071 1256 1071 1017 Z M439 386 L747 300 Q808 283 849 283 Q967 283 967 492 Q967 592 804 640 L509 727 Q439 748 407 748 Q287 748 287 555 Q287 429 439 386 Z " />
<glyph glyph-name="dagger" unicode="&#x2020;" horiz-adv-x="1256" d="M706 1365 L706 990 L1019 990 L1019 874 L706 874 L706 -410 L552 -410 L552 874 L236 874 L236 990 L552 990 L552 1365 L706 1365 Z " />
<glyph glyph-name="daggerdbl" unicode="&#x2021;" horiz-adv-x="1256" d="M706 1365 L706 990 L1019 990 L1019 874 L706 874 L706 82 L1019 82 L1019 -34 L706 -34 L706 -410 L552 -410 L552 -34 L236 -34 L236 82 L552 82 L552 874 L236 874 L236 990 L552 990 L552 1365 L706 1365 Z " />
<glyph glyph-name="asterisk" unicode="&#x2a;" horiz-adv-x="1257" d="M994 1074 L713 969 L880 731 L800 671 L630 918 L447 671 L367 731 L542 969 L263 1074 L298 1174 L578 1074 L578 1365 L680 1365 L680 1074 L958 1174 L994 1074 Z " />
<glyph glyph-name="quotesingle" unicode="&#x27;" horiz-adv-x="323" d="M211 819 L112 819 L93 1365 L231 1365 L211 819 Z " />
<glyph glyph-name="quotedbl" unicode="&#x22;" horiz-adv-x="639" d="M211 819 L112 819 L93 1365 L231 1365 L211 819 Z M527 819 L428 819 L408 1365 L546 1365 L527 819 Z " />
<glyph glyph-name="at" unicode="&#x40;" horiz-adv-x="1290" d="M837 969 L939 969 L939 498 L941 455 Q941 347 1024 347 Q1123 347 1123 698 Q1123 994 1056 1056.5 Q989 1119 672 1119 Q318 1119 242.5 1045 Q167 971 167 625 Q167 257 250.5 175 Q334 93 711 93 Q967 93 1011 175 L1079 126 Q1019 21 694 21 Q299 21 190.5 127.5 Q82 234 82 623 Q82 1004 185 1106 Q288 1208 672 1208 Q1011 1208 1109.5 1123 Q1208 1038 1208 744 Q1208 476 1169 375.5 Q1130 275 1026 275 Q881 275 858 385 L854 385 Q806 269 611 269 Q461 269 405 345 Q349 421 349 625 Q349 823 405.5 896 Q462 969 614 969 Q791 969 834 875 L837 875 L837 969 Z M643 897 Q521 897 486 847 Q451 797 451 622 Q451 450 486 395.5 Q521 341 633 341 Q768 341 802 397.5 Q836 454 836 680 Q836 897 643 897 Z " />
<glyph glyph-name="numbersign" unicode="&#x23;" horiz-adv-x="1256" d="M1101 525 L1085 433 L849 433 L781 0 L672 0 L741 433 L437 433 L369 0 L261 0 L330 433 L94 433 L109 525 L345 525 L394 845 L158 845 L174 937 L410 937 L477 1365 L585 1365 L517 937 L820 937 L888 1365 L997 1365 L929 937 L1163 937 L1147 845 L913 845 L865 525 L1101 525 Z M805 845 L502 845 L453 525 L756 525 L805 845 Z " />
<glyph glyph-name="degree" unicode="&#xb0;" horiz-adv-x="749" d="M375 1381 Q491 1381 573.5 1300 Q656 1219 656 1105 Q656 991 573.5 910 Q491 829 375 829 Q258 829 175.5 910 Q93 991 93 1105 Q93 1220 175.5 1300.5 Q258 1381 375 1381 Z M375 1297 Q178 1297 178 1105 Q178 913 375 913 Q571 913 571 1105 Q571 1297 375 1297 Z " />
<glyph glyph-name="plus" unicode="&#x2b;" horiz-adv-x="1256" d="M558 210 L558 617 L155 617 L155 747 L558 747 L558 1156 L698 1156 L698 747 L1101 747 L1101 617 L698 617 L698 210 L558 210 Z " />
<glyph glyph-name="divide" unicode="&#xf7;" horiz-adv-x="1256" d="M628 1109 Q721 1109 721 1017 Q721 924 628 924 Q536 924 536 1017 Q536 1109 628 1109 Z M628 442 Q721 442 721 350 Q721 257 628 257 Q536 257 536 350 Q536 442 628 442 Z M155 747 L1101 747 L1101 617 L155 617 L155 747 Z " />
<glyph glyph-name="equal" unicode="&#x3d;" horiz-adv-x="1256" d="M155 918 L1101 918 L1101 788 L155 788 L155 918 Z M155 577 L1101 577 L1101 447 L155 447 L155 577 Z " />
<glyph glyph-name="trademark" unicode="&#x2122;" horiz-adv-x="1630" d="M357 1273 L357 587 L255 587 L255 1273 L-3 1273 L-3 1365 L614 1365 L614 1273 L357 1273 Z M1562 1365 L1562 587 L1460 587 L1460 1205 L1460 1220 L1460 1251 L1460 1265 Q1457 1256 1455 1253 L1449 1238 L1443 1224 L1171 587 L1072 587 L800 1216 L794 1228 L788 1242 Q786 1246 782 1257 L782 1239 L782 1222 L782 1205 L782 587 L680 587 L680 1365 L846 1365 L1059 866 L1093 786 L1109 746 L1120 720 Q1129 739 1132 746 L1148 786 L1182 866 L1394 1365 L1562 1365 Z " />
<glyph glyph-name="paragraph" unicode="&#xb6;" horiz-adv-x="1260" d="M1092 -410 L952 -410 L952 1235 L792 1235 L792 -410 L652 -410 L652 535 L572 535 L525 536 Q277 536 186.5 621 Q96 706 96 939 Q96 1184 181 1274.5 Q266 1365 495 1365 L547 1365 L1092 1365 L1092 -410 Z " />
<glyph glyph-name="Euro" unicode="&#x20ac;" horiz-adv-x="1256" d="M1188 404 Q1188 194 1126 102 Q1070 19 937 -3 Q865 -14 615 -14 Q292 -14 199 109 Q127 203 111 496 L9 496 L39 626 L106 626 Q106 630 106 685 L106 755 L9 755 L39 885 L108 885 Q113 1069 127 1132 Q148 1223 247 1295 Q363 1379 728 1379 Q989 1379 1080 1298 Q1164 1223 1170 985 L1171 948 L1018 948 L1017 990 Q1013 1159 964 1202 Q911 1249 722 1249 Q412 1249 339 1194 Q266 1139 266 889 L266 885 L862 885 L832 755 L267 755 Q267 711 269 626 L802 626 L772 496 L274 496 Q286 274 315 215 Q364 116 630 116 Q902 116 971.5 160 Q1041 204 1037 375 L1035 456 L1188 456 L1188 404 Z " />
<glyph glyph-name="quotesinglbase" unicode="&#x201a;" horiz-adv-x="406" d="M283 184 L283 -14 Q283 -201 147 -201 Q134 -201 109 -199 L109 -123 Q195 -118 195 -35 L194 0 L129 0 L129 184 L283 184 Z " />
<glyph glyph-name="quoteright" unicode="&#x2019;" horiz-adv-x="406" d="M297 1365 L297 1166 Q297 979 161 979 Q149 979 123 981 L123 1058 Q209 1063 209 1146 L208 1181 L143 1181 L143 1365 L297 1365 Z " />
<glyph glyph-name="braceleft" unicode="&#x7b;" horiz-adv-x="783" d="M300 479 Q428 418 428 241 L428 -100 Q428 -297 599 -297 L613 -297 L613 -410 L525 -410 Q288 -410 288 -103 L288 235 Q288 387 171 422 L171 535 Q288 569 288 723 L288 1060 Q288 1365 525 1365 L613 1365 L613 1254 Q428 1254 428 1057 L428 716 Q428 539 300 479 Z " />
<glyph glyph-name="braceright" unicode="&#x7d;" horiz-adv-x="783" d="M488 477 Q360 537 360 714 L360 1055 Q360 1252 185 1252 L171 1252 L171 1365 L261 1365 Q500 1365 500 1058 L500 720 Q500 568 613 533 L613 420 Q500 384 500 233 L500 -105 Q500 -410 261 -410 L171 -410 L171 -299 Q360 -299 360 -102 L360 239 Q360 416 488 477 Z " />
<glyph glyph-name="ordfeminine" unicode="&#xaa;" horiz-adv-x="837" d="M269 1202 L171 1202 Q171 1304 217 1338.5 Q263 1373 401 1373 Q656 1373 656 1177 L656 819 L553 819 L559 864 Q496 811 380 811 Q147 811 147 979 Q147 1156 378 1156 Q501 1156 554 1115 L554 1160 Q554 1250 528.5 1275.5 Q503 1301 412 1301 Q268 1301 268 1225 L269 1202 Z M396 1084 Q249 1084 249 986 Q249 883 394 883 Q558 883 558 980 Q558 1084 396 1084 Z M119 724 L691 724 L691 642 L117 642 L119 724 Z " />
<glyph glyph-name="ordmasculine" unicode="&#xba;" horiz-adv-x="837" d="M419 1386 Q585 1386 635.5 1331.5 Q686 1277 686 1098 Q686 920 635.5 865.5 Q585 811 419 811 Q253 811 202.5 865.5 Q152 920 152 1099 Q152 1277 202.5 1331.5 Q253 1386 419 1386 Z M419 1297 Q316 1297 292 1265.5 Q268 1234 268 1099 Q268 962 291.5 931 Q315 900 419 900 Q522 900 546 931.5 Q570 963 570 1099 Q570 1234 546 1265.5 Q522 1297 419 1297 Z M134 724 L706 724 L706 642 L132 642 L134 724 Z " />
<glyph glyph-name="plusminus" unicode="&#xb1;" horiz-adv-x="1257" d="M148 896 L552 896 L552 1250 L706 1250 L706 896 L1108 896 L1108 753 L706 753 L706 403 L552 403 L552 753 L148 753 L148 896 Z M148 267 L1108 267 L1108 124 L148 124 L148 267 Z " />
<glyph glyph-name="fraction" unicode="&#x2215;" horiz-adv-x="273" d="M652 1365 L-275 0 L-378 0 L544 1365 L652 1365 Z " />
<glyph glyph-name="percent" unicode="&#x25;" horiz-adv-x="1609" d="M333 1370 Q538 1370 584 1316.5 Q630 1263 630 1028 Q630 793 584 735 Q538 677 350 677 Q139 677 86.5 736 Q34 795 34 1032 Q34 1249 87.5 1309.5 Q141 1370 333 1370 Z M331 1298 Q183 1298 151 1259 Q119 1220 119 1041 Q119 823 152.5 786 Q186 749 386 749 Q545 749 545 908 L545 1026 L545 1137 Q545 1246 510.5 1272 Q476 1298 331 1298 Z M1315 1365 L388 0 L295 0 L1216 1365 L1315 1365 Z M1274 688 Q1479 688 1525 634.5 Q1571 581 1571 346 Q1571 110 1525 52.5 Q1479 -5 1291 -5 Q1080 -5 1027.5 54 Q975 113 975 350 Q975 567 1028.5 627.5 Q1082 688 1274 688 Z M1272 616 Q1124 616 1092 577 Q1060 538 1060 359 Q1060 141 1093.5 104 Q1127 67 1327 67 Q1486 67 1486 226 L1486 344 L1486 455 Q1486 564 1451 590 Q1416 616 1272 616 Z " />
<glyph glyph-name="perthousand" unicode="&#x2030;" horiz-adv-x="2337" d="M333 1370 Q538 1370 584 1316.5 Q630 1263 630 1028 Q630 793 584 735 Q538 677 350 677 Q139 677 86.5 736 Q34 795 34 1032 Q34 1249 87.5 1309.5 Q141 1370 333 1370 Z M331 1298 Q183 1298 151 1259 Q119 1220 119 1041 Q119 823 152.5 786 Q186 749 386 749 Q545 749 545 908 L545 1026 L545 1137 Q545 1246 510.5 1272 Q476 1298 331 1298 Z M1315 1365 L388 0 L295 0 L1216 1365 L1315 1365 Z M1274 688 Q1479 688 1525 634.5 Q1571 581 1571 346 Q1571 110 1525 52.5 Q1479 -5 1291 -5 Q1080 -5 1027.5 54 Q975 113 975 350 Q975 567 1028.5 627.5 Q1082 688 1274 688 Z M1272 616 Q1124 616 1092 577 Q1060 538 1060 359 Q1060 141 1093.5 104 Q1127 67 1327 67 Q1486 67 1486 226 L1486 344 L1486 455 Q1486 564 1451 590 Q1416 616 1272 616 Z M2002 688 Q2206 688 2252.5 634.5 Q2299 581 2299 346 Q2299 110 2253 52.5 Q2207 -5 2018 -5 Q1807 -5 1754.5 54 Q1702 113 1702 350 Q1702 567 1755.5 627.5 Q1809 688 2002 688 Z M1999 616 Q1852 616 1819.5 577 Q1787 538 1787 359 Q1787 141 1821 104 Q1855 67 2054 67 Q2214 67 2214 226 L2214 344 L2214 455 Q2214 564 2179 590 Q2144 616 1999 616 Z " />
<glyph glyph-name="backslash" unicode="&#x5c;" horiz-adv-x="1323" d="M-136 1365 L-21 1365 L1179 -410 L1065 -410 L-136 1365 Z " />
<glyph glyph-name="dieresis" unicode="&#xa8;" horiz-adv-x="1024" d="M404 1256 L404 1126 L250 1126 L250 1256 L404 1256 Z M774 1256 L774 1126 L620 1126 L620 1256 L774 1256 Z " />
<glyph glyph-name="dotaccent" unicode="&#x2d9;" horiz-adv-x="1017" d="M586 1256 L586 1126 L432 1126 L432 1256 L586 1256 Z " />
<glyph glyph-name="ring" unicode="&#x2da;" horiz-adv-x="1024" d="M512 1365 Q669 1365 669 1208 Q669 1051 512 1051 Q355 1051 355 1208 Q355 1365 512 1365 Z M512 1293 Q423 1293 423 1208 Q423 1123 512 1123 Q601 1123 601 1208 Q601 1293 512 1293 Z " />
<glyph glyph-name="acute" unicode="&#xb4;" horiz-adv-x="1024" d="M666 1351 L738 1253 L443 1072 L395 1146 L666 1351 Z " />
<glyph glyph-name="grave" unicode="&#x60;" horiz-adv-x="1024" d="M358 1351 L629 1146 L580 1072 L286 1253 L358 1351 Z " />
<glyph glyph-name="circumflex" unicode="&#x2c6;" horiz-adv-x="1024" d="M512 1353 L774 1144 L718 1073 L512 1225 L306 1073 L249 1144 L512 1353 Z " />
<glyph glyph-name="caron" unicode="&#x2c7;" horiz-adv-x="1024" d="M512 1073 L249 1282 L306 1353 L512 1201 L718 1353 L774 1282 L512 1073 Z " />
<glyph glyph-name="breve" unicode="&#x2d8;" horiz-adv-x="1024" d="M247 1328 L344 1328 Q375 1187 512 1187 Q650 1187 680 1328 L778 1328 Q738 1078 512 1078 Q287 1078 247 1328 Z " />
<glyph glyph-name="tilde" unicode="&#x2dc;" horiz-adv-x="1024" d="M708 1276 L788 1226 Q717 1100 629 1100 Q583 1100 503 1136 Q425 1170 394 1170 Q352 1170 315 1104 L235 1155 Q308 1279 398 1279 Q439 1279 522 1245 Q609 1209 632 1209 Q671 1209 708 1276 Z " />
<glyph glyph-name="hungarumlaut" unicode="&#x2dd;" horiz-adv-x="1024" d="M524 1349 L600 1265 L345 1069 L293 1133 L524 1349 Z M792 1349 L868 1265 L613 1069 L561 1133 L792 1349 Z " />
<glyph glyph-name="cedilla" unicode="&#xb8;" horiz-adv-x="1024" d="M524 -100 L621 -154 L482 -349 L403 -307 L524 -100 Z " />
<glyph glyph-name="ogonek" unicode="&#x2db;" horiz-adv-x="1024" d="M671 0 L775 0 Q618 -90 618 -170 Q618 -263 743 -263 Q781 -263 819 -245 L819 -335 Q768 -352 726 -352 Q533 -352 533 -193 Q533 -79 671 0 Z " />
<glyph glyph-name="overscore" unicode="&#x2c9;" horiz-adv-x="1023" d="M261 1246 L763 1246 L763 1130 L261 1130 L261 1246 Z " />
<glyph glyph-name="copyright" unicode="&#xa9;" horiz-adv-x="1527" d="M987 569 L1090 569 L1089 533 Q1089 373 1032.5 332.5 Q976 292 752 292 Q548 292 492.5 362 Q437 432 437 690 Q437 967 494 1026.5 Q551 1086 816 1086 Q1079 1086 1079 859 L1080 831 L977 831 L977 861 Q977 949 947.5 973 Q918 997 810 997 Q620 997 579.5 968 Q539 939 539 804 Q539 487 566 434 Q593 381 756 381 Q913 381 950.5 403 Q988 425 988 517 L987 569 Z M765 1379 Q1051 1379 1254.5 1175 Q1458 971 1458 683 Q1458 395 1254.5 190.5 Q1051 -14 765 -14 Q476 -14 272 190 Q68 394 68 683 Q68 971 272 1175 Q476 1379 765 1379 Z M764 1307 Q511 1307 332 1124.5 Q153 942 153 683 Q153 424 332 241 Q511 58 764 58 Q1016 58 1194.5 241 Q1373 424 1373 683 Q1373 942 1195 1124.5 Q1017 1307 764 1307 Z " />
<glyph glyph-name="registered" unicode="&#xae;" horiz-adv-x="1527" d="M452 300 L452 1079 L836 1079 Q1074 1079 1074 851 Q1074 685 967 649 Q1063 616 1063 499 L1063 300 L961 300 L961 479 Q961 604 847 604 L818 604 L554 604 L554 300 L452 300 Z M554 696 L806 696 Q972 696 972 830 Q972 929 947 958 Q922 987 837 987 L554 987 L554 696 Z M765 1379 Q1051 1379 1254.5 1175 Q1458 971 1458 683 Q1458 395 1254.5 190.5 Q1051 -14 765 -14 Q476 -14 272 190 Q68 394 68 683 Q68 971 272 1175 Q476 1379 765 1379 Z M764 1307 Q511 1307 332 1124.5 Q153 942 153 683 Q153 424 332 241 Q511 58 764 58 Q1016 58 1194.5 241 Q1373 424 1373 683 Q1373 942 1195 1124.5 Q1017 1307 764 1307 Z " />
<glyph glyph-name="bullet" unicode="&#x2022;" horiz-adv-x="568" d="M286 978 Q403 978 485.5 894.5 Q568 811 568 694 Q568 577 485 493.5 Q402 410 286 410 Q168 410 84 493.5 Q0 577 0 694 Q0 812 83.5 895 Q167 978 286 978 Z " />
<glyph glyph-name="lozenge" unicode="&#x25ca;" horiz-adv-x="1063" d="M532 1419 L1063 683 L532 -53 L0 683 L532 1419 Z M532 1147 L195 683 L532 220 L869 683 L532 1147 Z " />
<glyph glyph-name="Delta" unicode="&#x2206;" horiz-adv-x="1249" d="M0 0 L548 1365 L698 1365 L1249 0 L0 0 Z M201 130 L1046 130 L623 1194 L201 130 Z " />
<glyph glyph-name="notequal" unicode="&#x2260;" horiz-adv-x="888" d="M490 910 L602 1141 L700 1103 L608 910 L888 910 L888 785 L550 785 L458 592 L888 592 L888 467 L400 467 L286 230 L189 268 L283 467 L0 467 L0 592 L341 592 L433 785 L0 785 L0 910 L490 910 Z " />
<glyph glyph-name="radical" unicode="&#x221a;" horiz-adv-x="1365" d="M1365 1697 L1365 1567 L961 1567 L511 0 L340 0 L168 617 L0 617 L0 747 L282 747 L361 477 Q370 447 391 346 L415 227 L422 195 L432 195 Q439 229 441 237 L473 372 L525 588 L616 904 L841 1697 L1365 1697 Z " />
<glyph glyph-name="integral" unicode="&#x222b;" horiz-adv-x="618" d="M0 -490 L32 -366 Q83 -380 122 -380 Q197 -380 218 -337.5 Q239 -295 239 -141 L239 1140 Q239 1380 287 1458 Q335 1536 484 1536 Q540 1536 618 1513 L586 1389 Q535 1406 497 1406 Q380 1406 380 1204 L379 1104 L379 -116 Q379 -357 327.5 -433.5 Q276 -510 114 -510 Q53 -510 0 -490 Z " />
<glyph glyph-name="approxequal" unicode="&#x2248;" horiz-adv-x="984" d="M84 712 L0 766 Q109 998 279 998 Q356 998 509 923 Q650 854 711 854 Q813 854 898 1002 L984 952 Q869 724 698 724 Q622 724 524 771 L406 827 Q321 868 267 868 Q166 868 84 712 Z M84 376 L0 430 Q108 662 279 662 Q356 662 509 587 Q650 518 711 518 Q812 518 898 666 L984 615 Q870 388 698 388 Q623 388 524 435 L406 491 Q321 532 268 532 Q165 532 84 376 Z " />
<glyph glyph-name="less" unicode="&#x3c;" horiz-adv-x="887" d="M887 1163 L887 1023 L150 689 L887 354 L887 215 L0 628 L0 750 L887 1163 Z " />
<glyph glyph-name="greater" unicode="&#x3e;" horiz-adv-x="887" d="M0 215 L0 355 L737 689 L0 1023 L0 1162 L887 749 L887 627 L0 215 Z " />
<glyph glyph-name="lessequal" unicode="&#x2264;" horiz-adv-x="887" d="M887 1239 L887 1105 L150 779 L887 454 L887 320 L0 716 L0 839 L887 1239 Z M887 259 L887 129 L0 129 L0 259 L887 259 Z " />
<glyph glyph-name="greaterequal" unicode="&#x2265;" horiz-adv-x="887" d="M0 320 L0 454 L737 780 L0 1105 L0 1239 L887 838 L887 716 L0 320 Z M0 129 L0 259 L887 259 L887 129 L0 129 Z " />
<glyph glyph-name="logicalnot" unicode="&#xac;" horiz-adv-x="887" d="M747 0 L747 416 L0 416 L0 546 L887 546 L887 0 L747 0 Z " />
<glyph glyph-name="infinity" unicode="&#x221e;" horiz-adv-x="1290" d="M648 603 Q495 385 310 385 Q0 385 0 698 Q0 835 87 922.5 Q174 1010 311 1010 Q495 1010 642 792 Q790 1010 982 1010 Q1290 1010 1290 696 Q1290 384 984 384 Q794 384 648 603 Z M715 697 Q841 500 972 500 Q1157 500 1157 700 Q1157 894 970 894 Q843 894 715 697 Z M574 696 Q451 894 318 894 Q133 894 133 695 Q133 501 320 501 Q447 501 574 696 Z " />
<glyph glyph-name="product" unicode="&#x220f;" horiz-adv-x="1277" d="M0 1536 L1277 1536 L1277 1406 L1114 1406 L1114 -382 L1277 -382 L1277 -512 L806 -512 L806 -382 L974 -382 L974 1406 L302 1406 L302 -382 L471 -382 L471 -512 L0 -512 L0 -382 L162 -382 L162 1406 L0 1406 L0 1536 Z " />
<glyph glyph-name="summation" unicode="&#x2211;" horiz-adv-x="1182" d="M1163 1536 L1163 1072 L1035 1072 L1023 1406 L156 1406 L674 555 L156 -382 L1042 -382 L1049 -48 L1182 -48 L1182 -512 L0 -512 L0 -365 L510 555 L0 1394 L0 1536 L1163 1536 Z " />
<glyph glyph-name="partialdiff" unicode="&#x2202;" horiz-adv-x="895" d="M113 1248 L132 1373 Q495 1322 695 1092.5 Q895 863 895 498 Q895 265 772 121 Q649 -23 449 -23 Q265 -23 132.5 113 Q0 249 0 439 Q0 625 123.5 758 Q247 891 421 891 Q610 891 733 735 Q724 757 720 768 Q553 1186 113 1248 Z M457 782 Q327 782 237 680 Q147 578 147 431 Q147 289 236 187.5 Q325 86 449 86 Q577 86 662.5 189.5 Q748 293 748 448 Q748 593 665.5 687.5 Q583 782 457 782 Z " />
<glyph glyph-name="asciicircum" unicode="&#x5e;" horiz-adv-x="914" d="M152 752 L0 752 L365 1369 L549 1369 L914 752 L761 752 L455 1258 L152 752 Z " />
<glyph glyph-name="bar" unicode="&#x7c;" horiz-adv-x="140" d="M0 1365 L140 1365 L140 -341 L0 -341 L0 1365 Z " />
<glyph glyph-name="underscore" unicode="&#x5f;" horiz-adv-x="1024" d="M0 -136 L1024 -136 L1024 -266 L0 -266 L0 -136 Z " />
<glyph glyph-name="pi" unicode="&#x3c0;" horiz-adv-x="1064" d="M152 0 L152 851 L0 851 L0 981 L1064 981 L1064 851 L914 851 L914 0 L774 0 L774 851 L292 851 L292 0 L152 0 Z " />
<glyph glyph-name="asciitilde" unicode="&#x7e;" horiz-adv-x="984" d="M84 1196 L0 1250 Q115 1482 279 1482 Q356 1482 509 1408 Q650 1339 711 1339 Q813 1339 898 1486 L984 1435 Q870 1209 698 1209 Q623 1209 524 1256 L406 1311 Q321 1352 267 1352 Q167 1352 84 1196 Z " />
<glyph glyph-name="mu" unicode="&#xb5;" horiz-adv-x="825" d="M0 -342 L0 983 L140 983 L140 424 Q140 83 408 83 Q685 83 685 443 L685 983 L825 983 L825 0 L685 0 L685 180 Q593 -26 405 -26 Q236 -26 140 126 L140 -342 L0 -342 Z " />
<glyph glyph-name="Omega" unicode="&#x2126;" horiz-adv-x="1249" d="M0 0 L0 130 L375 130 Q0 347 0 745 Q0 1020 181 1209 Q362 1398 625 1398 Q888 1398 1068.5 1209 Q1249 1020 1249 745 Q1249 346 874 130 L1249 130 L1249 0 L713 0 L713 118 Q1102 340 1102 728 Q1102 953 963 1110.5 Q824 1268 625 1268 Q423 1268 285 1112 Q147 956 147 727 Q147 338 536 118 L536 0 L0 0 Z " />
<glyph glyph-name="Adieresis" unicode="&#xc4;" horiz-adv-x="1246" d="M969 289 L278 289 L173 0 L10 0 L510 1365 L726 1365 L1236 0 L1075 0 L969 289 Z M924 405 L621 1239 L322 405 L924 405 Z M515 1660 L515 1530 L361 1530 L361 1660 L515 1660 Z M885 1660 L885 1530 L731 1530 L731 1660 L885 1660 Z " />
<glyph glyph-name="Aacute" unicode="&#xc1;" horiz-adv-x="1246" d="M969 289 L278 289 L173 0 L10 0 L510 1365 L726 1365 L1236 0 L1075 0 L969 289 Z M924 405 L621 1239 L322 405 L924 405 Z M823 1741 L884 1630 L576 1476 L526 1555 L823 1741 Z " />
<glyph glyph-name="Agrave" unicode="&#xc0;" horiz-adv-x="1246" d="M969 289 L278 289 L173 0 L10 0 L510 1365 L726 1365 L1236 0 L1075 0 L969 289 Z M924 405 L621 1239 L322 405 L924 405 Z M422 1741 L720 1555 L670 1476 L362 1630 L422 1741 Z " />
<glyph glyph-name="Acircumflex" unicode="&#xc2;" horiz-adv-x="1246" d="M969 289 L278 289 L173 0 L10 0 L510 1365 L726 1365 L1236 0 L1075 0 L969 289 Z M924 405 L621 1239 L322 405 L924 405 Z M627 1735 L940 1553 L897 1476 L627 1600 L344 1476 L306 1553 L627 1735 Z " />
<glyph glyph-name="Atilde" unicode="&#xc3;" horiz-adv-x="1246" d="M969 289 L278 289 L173 0 L10 0 L510 1365 L726 1365 L1236 0 L1075 0 L969 289 Z M924 405 L621 1239 L322 405 L924 405 Z M867 1698 L945 1647 Q861 1511 757 1511 Q713 1511 619 1552 Q535 1588 496 1588 Q451 1588 410 1515 L328 1561 Q402 1697 501 1697 Q542 1697 637 1658 Q728 1620 760 1620 Q816 1620 867 1698 Z " />
<glyph glyph-name="Aring" unicode="&#xc5;" horiz-adv-x="1246" d="M969 289 L278 289 L173 0 L10 0 L510 1365 L726 1365 L1236 0 L1075 0 L969 289 Z M924 405 L621 1239 L322 405 L924 405 Z M623 1775 Q780 1775 780 1618 Q780 1461 623 1461 Q466 1461 466 1618 Q466 1775 623 1775 Z M623 1703 Q534 1703 534 1618 Q534 1533 623 1533 Q712 1533 712 1618 Q712 1703 623 1703 Z " />
<glyph glyph-name="Edieresis" unicode="&#xcb;" horiz-adv-x="1020" d="M229 1235 L229 770 L922 770 L922 640 L229 640 L229 130 L952 130 L952 0 L75 0 L75 1365 L952 1365 L952 1235 L229 1235 Z M416 1660 L416 1530 L262 1530 L262 1660 L416 1660 Z M786 1660 L786 1530 L632 1530 L632 1660 L786 1660 Z " />
<glyph glyph-name="Eacute" unicode="&#xc9;" horiz-adv-x="1020" d="M229 1235 L229 770 L922 770 L922 640 L229 640 L229 130 L952 130 L952 0 L75 0 L75 1365 L952 1365 L952 1235 L229 1235 Z M697 1741 L757 1630 L449 1476 L399 1555 L697 1741 Z " />
<glyph glyph-name="Egrave" unicode="&#xc8;" horiz-adv-x="1020" d="M229 1235 L229 770 L922 770 L922 640 L229 640 L229 130 L952 130 L952 0 L75 0 L75 1365 L952 1365 L952 1235 L229 1235 Z M364 1741 L661 1555 L611 1476 L304 1630 L364 1741 Z " />
<glyph glyph-name="Ecircumflex" unicode="&#xca;" horiz-adv-x="1020" d="M229 1235 L229 770 L922 770 L922 640 L229 640 L229 130 L952 130 L952 0 L75 0 L75 1365 L952 1365 L952 1235 L229 1235 Z M527 1735 L841 1553 L798 1476 L527 1600 L244 1476 L206 1553 L527 1735 Z " />
<glyph glyph-name="Idieresis" unicode="&#xcf;" horiz-adv-x="416" d="M284 1365 L284 0 L130 0 L130 1365 L284 1365 Z M175 1660 L175 1530 L21 1530 L21 1660 L175 1660 Z M395 1660 L395 1530 L241 1530 L241 1660 L395 1660 Z " />
<glyph glyph-name="Iacute" unicode="&#xcd;" horiz-adv-x="416" d="M284 1365 L284 0 L130 0 L130 1365 L284 1365 Z M408 1741 L469 1630 L161 1476 L111 1555 L408 1741 Z " />
<glyph glyph-name="Igrave" unicode="&#xcc;" horiz-adv-x="416" d="M282 1365 L282 0 L128 0 L128 1365 L282 1365 Z M7 1741 L305 1555 L255 1476 L-53 1630 L7 1741 Z " />
<glyph glyph-name="Icircumflex" unicode="&#xce;" horiz-adv-x="416" d="M284 1365 L284 0 L130 0 L130 1365 L284 1365 Z M212 1735 L498 1553 L455 1476 L212 1600 L-44 1476 L-82 1553 L212 1735 Z " />
<glyph glyph-name="Ntilde" unicode="&#xd1;" horiz-adv-x="1426" d="M1296 1365 L1296 0 L1043 0 L471 929 L378 1082 L332 1158 L286 1234 L282 1234 L283 1183 L284 1131 L284 1029 L284 0 L130 0 L130 1365 L382 1365 L881 551 L1011 337 L1076 231 L1140 124 L1144 124 L1143 175 L1142 227 L1142 329 L1142 1365 L1296 1365 Z M958 1698 L1036 1647 Q952 1511 847 1511 Q803 1511 710 1552 Q626 1588 586 1588 Q541 1588 501 1515 L418 1561 Q492 1697 592 1697 Q632 1697 727 1658 Q818 1620 851 1620 Q906 1620 958 1698 Z " />
<glyph glyph-name="Odieresis" unicode="&#xd6;" horiz-adv-x="1256" d="M629 1379 Q1016 1379 1113 1266 Q1210 1153 1210 701 Q1210 214 1117 100 Q1024 -14 629 -14 Q236 -14 141.5 99 Q47 212 47 683 L47 779 L49 908 Q49 1180 171.5 1279.5 Q294 1379 629 1379 Z M628 1249 Q304 1249 249 1177 Q194 1105 194 683 Q194 260 249 188 Q304 116 628 116 Q953 116 1008 188 Q1063 260 1063 683 L1063 772 L1062 901 Q1062 1127 986 1188 Q910 1249 628 1249 Z M521 1660 L521 1530 L367 1530 L367 1660 L521 1660 Z M891 1660 L891 1530 L737 1530 L737 1660 L891 1660 Z " />
<glyph glyph-name="Oacute" unicode="&#xd3;" horiz-adv-x="1256" d="M629 1379 Q1016 1379 1113 1266 Q1210 1153 1210 701 Q1210 214 1117 100 Q1024 -14 629 -14 Q236 -14 141.5 99 Q47 212 47 683 L47 779 L49 908 Q49 1180 171.5 1279.5 Q294 1379 629 1379 Z M628 1249 Q304 1249 249 1177 Q194 1105 194 683 Q194 260 249 188 Q304 116 628 116 Q953 116 1008 188 Q1063 260 1063 683 L1063 772 L1062 901 Q1062 1127 986 1188 Q910 1249 628 1249 Z M802 1741 L862 1630 L554 1476 L505 1555 L802 1741 Z " />
<glyph glyph-name="Ograve" unicode="&#xd2;" horiz-adv-x="1256" d="M629 1379 Q1016 1379 1113 1266 Q1210 1153 1210 701 Q1210 214 1117 100 Q1024 -14 629 -14 Q236 -14 141.5 99 Q47 212 47 683 L47 779 L49 908 Q49 1180 171.5 1279.5 Q294 1379 629 1379 Z M628 1249 Q304 1249 249 1177 Q194 1105 194 683 Q194 260 249 188 Q304 116 628 116 Q953 116 1008 188 Q1063 260 1063 683 L1063 772 L1062 901 Q1062 1127 986 1188 Q910 1249 628 1249 Z M469 1741 L767 1555 L717 1476 L409 1630 L469 1741 Z " />
<glyph glyph-name="Ocircumflex" unicode="&#xd4;" horiz-adv-x="1256" d="M629 1379 Q1016 1379 1113 1266 Q1210 1153 1210 701 Q1210 214 1117 100 Q1024 -14 629 -14 Q236 -14 141.5 99 Q47 212 47 683 L47 779 L49 908 Q49 1180 171.5 1279.5 Q294 1379 629 1379 Z M628 1249 Q304 1249 249 1177 Q194 1105 194 683 Q194 260 249 188 Q304 116 628 116 Q953 116 1008 188 Q1063 260 1063 683 L1063 772 L1062 901 Q1062 1127 986 1188 Q910 1249 628 1249 Z M632 1735 L946 1553 L903 1476 L632 1600 L350 1476 L312 1553 L632 1735 Z " />
<glyph glyph-name="Otilde" unicode="&#xd5;" horiz-adv-x="1256" d="M629 1379 Q1016 1379 1113 1266 Q1210 1153 1210 701 Q1210 214 1117 100 Q1024 -14 629 -14 Q236 -14 141.5 99 Q47 212 47 683 L47 779 L49 908 Q49 1180 171.5 1279.5 Q294 1379 629 1379 Z M628 1249 Q304 1249 249 1177 Q194 1105 194 683 Q194 260 249 188 Q304 116 628 116 Q953 116 1008 188 Q1063 260 1063 683 L1063 772 L1062 901 Q1062 1127 986 1188 Q910 1249 628 1249 Z M881 1698 L959 1647 Q875 1511 771 1511 Q727 1511 633 1552 Q549 1588 509 1588 Q465 1588 424 1515 L341 1561 Q416 1697 515 1697 Q556 1697 650 1658 Q742 1620 774 1620 Q830 1620 881 1698 Z " />
<glyph glyph-name="Udieresis" unicode="&#xdc;" horiz-adv-x="1341" d="M1058 1365 L1212 1365 L1212 409 Q1212 149 1107.5 67.5 Q1003 -14 669 -14 Q356 -14 243.5 64.5 Q131 143 131 363 L131 409 L131 1365 L285 1365 L285 409 Q285 215 348 165.5 Q411 116 658 116 Q926 116 992 164.5 Q1058 213 1058 409 L1058 1365 Z M563 1660 L563 1530 L409 1530 L409 1660 L563 1660 Z M933 1660 L933 1530 L779 1530 L779 1660 L933 1660 Z " />
<glyph glyph-name="Uacute" unicode="&#xda;" horiz-adv-x="1341" d="M1058 1365 L1212 1365 L1212 409 Q1212 149 1107.5 67.5 Q1003 -14 669 -14 Q356 -14 243.5 64.5 Q131 143 131 363 L131 409 L131 1365 L285 1365 L285 409 Q285 215 348 165.5 Q411 116 658 116 Q926 116 992 164.5 Q1058 213 1058 409 L1058 1365 Z M844 1741 L904 1630 L597 1476 L547 1555 L844 1741 Z " />
<glyph glyph-name="Ugrave" unicode="&#xd9;" horiz-adv-x="1341" d="M1058 1365 L1212 1365 L1212 409 Q1212 149 1107.5 67.5 Q1003 -14 669 -14 Q356 -14 243.5 64.5 Q131 143 131 363 L131 409 L131 1365 L285 1365 L285 409 Q285 215 348 165.5 Q411 116 658 116 Q926 116 992 164.5 Q1058 213 1058 409 L1058 1365 Z M511 1741 L809 1555 L759 1476 L451 1630 L511 1741 Z " />
<glyph glyph-name="Ucircumflex" unicode="&#xdb;" horiz-adv-x="1341" d="M1058 1365 L1212 1365 L1212 409 Q1212 149 1107.5 67.5 Q1003 -14 669 -14 Q356 -14 243.5 64.5 Q131 143 131 363 L131 409 L131 1365 L285 1365 L285 409 Q285 215 348 165.5 Q411 116 658 116 Q926 116 992 164.5 Q1058 213 1058 409 L1058 1365 Z M675 1735 L988 1553 L945 1476 L675 1600 L392 1476 L354 1553 L675 1735 Z " />
<glyph glyph-name="Ydieresis" unicode="&#x178;" horiz-adv-x="1152" d="M1163 1365 L647 570 L647 0 L493 0 L493 570 L-10 1365 L169 1365 L462 904 L518 815 Q529 799 546 771 L573 726 L577 726 Q595 756 604 771 L631 815 L688 904 L980 1365 L1163 1365 Z M468 1660 L468 1530 L314 1530 L314 1660 L468 1660 Z M838 1660 L838 1530 L684 1530 L684 1660 L838 1660 Z " />
<glyph glyph-name="adieresis" unicode="&#xe4;" horiz-adv-x="1044" d="M269 688 L130 688 Q130 855 205.5 912.5 Q281 970 501 970 Q740 970 824 899.5 Q908 829 908 631 L908 0 L768 0 L779 103 L776 104 Q696 -14 451 -14 Q89 -14 89 277 Q89 450 170 516 Q251 582 463 582 Q715 582 765 483 L768 484 L768 600 Q768 764 723 812.5 Q678 861 526 861 Q268 861 268 716 Q268 709 269 688 Z M494 473 Q333 473 284.5 439 Q236 405 236 293 Q236 177 284 139.5 Q332 102 479 102 Q775 102 775 282 Q775 395 717.5 434 Q660 473 494 473 Z M401 1256 L401 1126 L247 1126 L247 1256 L401 1256 Z M771 1256 L771 1126 L617 1126 L617 1256 L771 1256 Z " />
<glyph glyph-name="aacute" unicode="&#xe1;" horiz-adv-x="1044" d="M269 688 L130 688 Q130 855 205.5 912.5 Q281 970 501 970 Q740 970 824 899.5 Q908 829 908 631 L908 0 L768 0 L779 103 L776 104 Q696 -14 451 -14 Q89 -14 89 277 Q89 450 170 516 Q251 582 463 582 Q715 582 765 483 L768 484 L768 600 Q768 764 723 812.5 Q678 861 526 861 Q268 861 268 716 Q268 709 269 688 Z M494 473 Q333 473 284.5 439 Q236 405 236 293 Q236 177 284 139.5 Q332 102 479 102 Q775 102 775 282 Q775 395 717.5 434 Q660 473 494 473 Z M677 1351 L749 1253 L454 1072 L406 1146 L677 1351 Z " />
<glyph glyph-name="agrave" unicode="&#xe0;" horiz-adv-x="1044" d="M269 688 L130 688 Q130 855 205.5 912.5 Q281 970 501 970 Q740 970 824 899.5 Q908 829 908 631 L908 0 L768 0 L779 103 L776 104 Q696 -14 451 -14 Q89 -14 89 277 Q89 450 170 516 Q251 582 463 582 Q715 582 765 483 L768 484 L768 600 Q768 764 723 812.5 Q678 861 526 861 Q268 861 268 716 Q268 709 269 688 Z M494 473 Q333 473 284.5 439 Q236 405 236 293 Q236 177 284 139.5 Q332 102 479 102 Q775 102 775 282 Q775 395 717.5 434 Q660 473 494 473 Z M369 1351 L640 1146 L591 1072 L297 1253 L369 1351 Z " />
<glyph glyph-name="acircumflex" unicode="&#xe2;" horiz-adv-x="1044" d="M269 688 L130 688 Q130 855 205.5 912.5 Q281 970 501 970 Q740 970 824 899.5 Q908 829 908 631 L908 0 L768 0 L779 103 L776 104 Q696 -14 451 -14 Q89 -14 89 277 Q89 450 170 516 Q251 582 463 582 Q715 582 765 483 L768 484 L768 600 Q768 764 723 812.5 Q678 861 526 861 Q268 861 268 716 Q268 709 269 688 Z M494 473 Q333 473 284.5 439 Q236 405 236 293 Q236 177 284 139.5 Q332 102 479 102 Q775 102 775 282 Q775 395 717.5 434 Q660 473 494 473 Z M509 1353 L771 1144 L715 1073 L509 1225 L303 1073 L246 1144 L509 1353 Z " />
<glyph glyph-name="atilde" unicode="&#xe3;" horiz-adv-x="1044" d="M719 1276 L799 1226 Q728 1100 640 1100 Q594 1100 514 1136 Q436 1170 405 1170 Q363 1170 326 1104 L246 1155 Q319 1279 409 1279 Q450 1279 533 1245 Q620 1209 643 1209 Q682 1209 719 1276 Z M269 688 L130 688 Q130 855 205.5 912.5 Q281 970 501 970 Q740 970 824 899.5 Q908 829 908 631 L908 0 L768 0 L779 103 L776 104 Q696 -14 451 -14 Q89 -14 89 277 Q89 450 170 516 Q251 582 463 582 Q715 582 765 483 L768 484 L768 600 Q768 764 723 812.5 Q678 861 526 861 Q268 861 268 716 Q268 709 269 688 Z M494 466 Q333 466 284.5 432.5 Q236 399 236 289 Q236 174 284.5 138 Q333 102 491 102 Q775 102 775 278 Q775 389 717.5 427.5 Q660 466 494 466 Z " />
<glyph glyph-name="aring" unicode="&#xe5;" horiz-adv-x="1044" d="M269 688 L130 688 Q130 855 205.5 912.5 Q281 970 501 970 Q740 970 824 899.5 Q908 829 908 631 L908 0 L768 0 L779 103 L776 104 Q696 -14 451 -14 Q89 -14 89 277 Q89 450 170 516 Q251 582 463 582 Q715 582 765 483 L768 484 L768 600 Q768 764 723 812.5 Q678 861 526 861 Q268 861 268 716 Q268 709 269 688 Z M494 473 Q333 473 284.5 439 Q236 405 236 293 Q236 177 284 139.5 Q332 102 479 102 Q775 102 775 282 Q775 395 717.5 434 Q660 473 494 473 Z M509 1365 Q666 1365 666 1208 Q666 1051 509 1051 Q352 1051 352 1208 Q352 1365 509 1365 Z M509 1293 Q420 1293 420 1208 Q420 1123 509 1123 Q598 1123 598 1208 Q598 1293 509 1293 Z " />
<glyph glyph-name="edieresis" unicode="&#xeb;" horiz-adv-x="1029" d="M788 289 L931 289 L932 254 Q932 105 841.5 45.5 Q751 -14 524 -14 Q260 -14 177.5 82.5 Q95 179 95 488 Q95 774 178 872 Q261 970 503 970 Q767 970 849 885 Q931 800 931 527 L931 452 L243 452 Q243 226 291.5 164 Q340 102 518 102 Q687 102 737.5 131.5 Q788 161 788 259 L788 289 Z M788 561 L787 606 Q787 761 736 807.5 Q685 854 516 854 Q346 854 295.5 799.5 Q245 745 245 561 L788 561 Z M420 1256 L420 1126 L266 1126 L266 1256 L420 1256 Z M790 1256 L790 1126 L636 1126 L636 1256 L790 1256 Z " />
<glyph glyph-name="eacute" unicode="&#xe9;" horiz-adv-x="1029" d="M788 289 L931 289 L932 254 Q932 105 841.5 45.5 Q751 -14 524 -14 Q260 -14 177.5 82.5 Q95 179 95 488 Q95 774 178 872 Q261 970 503 970 Q767 970 849 885 Q931 800 931 527 L931 452 L243 452 Q243 226 291.5 164 Q340 102 518 102 Q687 102 737.5 131.5 Q788 161 788 259 L788 289 Z M788 561 L787 606 Q787 761 736 807.5 Q685 854 516 854 Q346 854 295.5 799.5 Q245 745 245 561 L788 561 Z M682 1351 L754 1253 L459 1072 L411 1146 L682 1351 Z " />
<glyph glyph-name="egrave" unicode="&#xe8;" horiz-adv-x="1029" d="M788 289 L931 289 L932 254 Q932 105 841.5 45.5 Q751 -14 524 -14 Q260 -14 177.5 82.5 Q95 179 95 488 Q95 774 178 872 Q261 970 503 970 Q767 970 849 885 Q931 800 931 527 L931 452 L243 452 Q243 226 291.5 164 Q340 102 518 102 Q687 102 737.5 131.5 Q788 161 788 259 L788 289 Z M788 561 L787 606 Q787 761 736 807.5 Q685 854 516 854 Q346 854 295.5 799.5 Q245 745 245 561 L788 561 Z M374 1351 L645 1146 L596 1072 L302 1253 L374 1351 Z " />
<glyph glyph-name="ecircumflex" unicode="&#xea;" horiz-adv-x="1029" d="M788 289 L931 289 L932 254 Q932 105 841.5 45.5 Q751 -14 524 -14 Q260 -14 177.5 82.5 Q95 179 95 488 Q95 774 178 872 Q261 970 503 970 Q767 970 849 885 Q931 800 931 527 L931 452 L243 452 Q243 226 291.5 164 Q340 102 518 102 Q687 102 737.5 131.5 Q788 161 788 259 L788 289 Z M788 561 L787 606 Q787 761 736 807.5 Q685 854 516 854 Q346 854 295.5 799.5 Q245 745 245 561 L788 561 Z M528 1353 L790 1144 L734 1073 L528 1225 L322 1073 L265 1144 L528 1353 Z " />
<glyph glyph-name="idieresis" unicode="&#xef;" horiz-adv-x="385" d="M263 956 L263 0 L123 0 L123 956 L263 956 Z M138 1256 L138 1126 L-16 1126 L-16 1256 L138 1256 Z M402 1256 L402 1126 L248 1126 L248 1256 L402 1256 Z " />
<glyph glyph-name="iacute" unicode="&#xed;" horiz-adv-x="385" d="M263 956 L263 0 L123 0 L123 956 L263 956 Z M360 1351 L432 1253 L137 1072 L89 1146 L360 1351 Z " />
<glyph glyph-name="igrave" unicode="&#xec;" horiz-adv-x="385" d="M263 956 L263 0 L123 0 L123 956 L263 956 Z M25 1351 L296 1146 L247 1072 L-47 1253 L25 1351 Z " />
<glyph glyph-name="icircumflex" unicode="&#xee;" horiz-adv-x="385" d="M263 956 L263 0 L123 0 L123 956 L263 956 Z M192 1353 L428 1144 L371 1073 L192 1225 L14 1073 L-43 1144 L192 1353 Z " />
<glyph glyph-name="ntilde" unicode="&#xf1;" horiz-adv-x="1056" d="M123 956 L258 956 L254 826 L258 823 Q322 970 576 970 Q781 970 853.5 898 Q926 826 926 622 L926 0 L786 0 L786 610 L786 646 Q786 769 739 811.5 Q692 854 558 854 Q263 854 263 575 L263 0 L123 0 L123 956 Z M737 1276 L817 1226 Q746 1100 658 1100 Q612 1100 532 1136 Q454 1170 423 1170 Q381 1170 344 1104 L264 1155 Q337 1279 427 1279 Q468 1279 551 1245 Q638 1209 661 1209 Q700 1209 737 1276 Z " />
<glyph glyph-name="odieresis" unicode="&#xf6;" horiz-adv-x="1036" d="M518 970 Q783 970 862 878 Q941 786 941 478 Q941 170 862 78 Q783 -14 518 -14 Q254 -14 175 78 Q96 170 96 478 Q96 786 175 878 Q254 970 518 970 Z M518 854 Q332 854 287.5 793.5 Q243 733 243 478 Q243 223 287.5 162.5 Q332 102 518 102 Q705 102 749.5 162.5 Q794 223 794 478 Q794 733 749.5 793.5 Q705 854 518 854 Z M411 1256 L411 1126 L257 1126 L257 1256 L411 1256 Z M781 1256 L781 1126 L627 1126 L627 1256 L781 1256 Z " />
<glyph glyph-name="oacute" unicode="&#xf3;" horiz-adv-x="1036" d="M518 970 Q783 970 862 878 Q941 786 941 478 Q941 170 862 78 Q783 -14 518 -14 Q254 -14 175 78 Q96 170 96 478 Q96 786 175 878 Q254 970 518 970 Z M518 854 Q332 854 287.5 793.5 Q243 733 243 478 Q243 223 287.5 162.5 Q332 102 518 102 Q705 102 749.5 162.5 Q794 223 794 478 Q794 733 749.5 793.5 Q705 854 518 854 Z M672 1351 L744 1253 L449 1072 L401 1146 L672 1351 Z " />
<glyph glyph-name="ograve" unicode="&#xf2;" horiz-adv-x="1036" d="M518 970 Q783 970 862 878 Q941 786 941 478 Q941 170 862 78 Q783 -14 518 -14 Q254 -14 175 78 Q96 170 96 478 Q96 786 175 878 Q254 970 518 970 Z M518 854 Q332 854 287.5 793.5 Q243 733 243 478 Q243 223 287.5 162.5 Q332 102 518 102 Q705 102 749.5 162.5 Q794 223 794 478 Q794 733 749.5 793.5 Q705 854 518 854 Z M378 1351 L649 1146 L600 1072 L306 1253 L378 1351 Z " />
<glyph glyph-name="ocircumflex" unicode="&#xf4;" horiz-adv-x="1036" d="M518 970 Q783 970 862 878 Q941 786 941 478 Q941 170 862 78 Q783 -14 518 -14 Q254 -14 175 78 Q96 170 96 478 Q96 786 175 878 Q254 970 518 970 Z M518 854 Q332 854 287.5 793.5 Q243 733 243 478 Q243 223 287.5 162.5 Q332 102 518 102 Q705 102 749.5 162.5 Q794 223 794 478 Q794 733 749.5 793.5 Q705 854 518 854 Z M518 1353 L780 1144 L724 1073 L518 1225 L312 1073 L255 1144 L518 1353 Z " />
<glyph glyph-name="otilde" unicode="&#xf5;" horiz-adv-x="1036" d="M518 970 Q783 970 862 878 Q941 786 941 478 Q941 170 862 78 Q783 -14 518 -14 Q254 -14 175 78 Q96 170 96 478 Q96 786 175 878 Q254 970 518 970 Z M518 854 Q332 854 287.5 793.5 Q243 733 243 478 Q243 223 287.5 162.5 Q332 102 518 102 Q705 102 749.5 162.5 Q794 223 794 478 Q794 733 749.5 793.5 Q705 854 518 854 Z M735 1276 L815 1226 Q744 1100 656 1100 Q610 1100 530 1136 Q452 1170 421 1170 Q379 1170 342 1104 L262 1155 Q335 1279 425 1279 Q466 1279 549 1245 Q636 1209 659 1209 Q698 1209 735 1276 Z " />
<glyph glyph-name="udieresis" unicode="&#xfc;" horiz-adv-x="1039" d="M903 956 L903 0 L763 0 L773 125 L770 128 Q697 -14 458 -14 Q123 -14 123 320 L123 956 L263 956 L263 320 Q263 190 306 146 Q349 102 475 102 Q640 102 701.5 167.5 Q763 233 763 408 L763 956 L903 956 Z M412 1256 L412 1126 L258 1126 L258 1256 L412 1256 Z M782 1256 L782 1126 L628 1126 L628 1256 L782 1256 Z " />
<glyph glyph-name="uacute" unicode="&#xfa;" horiz-adv-x="1039" d="M903 956 L903 0 L763 0 L773 125 L770 128 Q697 -14 458 -14 Q123 -14 123 320 L123 956 L263 956 L263 320 Q263 190 306 146 Q349 102 475 102 Q640 102 701.5 167.5 Q763 233 763 408 L763 956 L903 956 Z M674 1351 L746 1253 L451 1072 L403 1146 L674 1351 Z " />
<glyph glyph-name="ugrave" unicode="&#xf9;" horiz-adv-x="1039" d="M903 956 L903 0 L763 0 L773 125 L770 128 Q697 -14 458 -14 Q123 -14 123 320 L123 956 L263 956 L263 320 Q263 190 306 146 Q349 102 475 102 Q640 102 701.5 167.5 Q763 233 763 408 L763 956 L903 956 Z M366 1351 L637 1146 L588 1072 L294 1253 L366 1351 Z " />
<glyph glyph-name="ucircumflex" unicode="&#xfb;" horiz-adv-x="1039" d="M903 956 L903 0 L763 0 L773 125 L770 128 Q697 -14 458 -14 Q123 -14 123 320 L123 956 L263 956 L263 320 Q263 190 306 146 Q349 102 475 102 Q640 102 701.5 167.5 Q763 233 763 408 L763 956 L903 956 Z M520 1353 L782 1144 L726 1073 L520 1225 L314 1073 L257 1144 L520 1353 Z " />
<glyph glyph-name="ydieresis" unicode="&#xff;" horiz-adv-x="796" d="M802 956 L531 -55 Q474 -269 404.5 -349 Q335 -429 206 -429 Q180 -429 139 -422 L139 -306 Q168 -312 188 -313 Q301 -319 356 -130 L383 -36 Q384 -31 392 0 L339 0 L-7 956 L142 956 L289 530 L363 318 L399 211 L436 105 L440 105 L466 211 L491 318 L545 530 L653 956 L802 956 Z M290 1256 L290 1126 L136 1126 L136 1256 L290 1256 Z M660 1256 L660 1126 L506 1126 L506 1256 L660 1256 Z " />
<glyph glyph-name="Eth" unicode="&#xd0;" horiz-adv-x="1337" d="M130 640 L0 640 L0 756 L130 756 L130 1365 L760 1365 Q1054 1365 1158 1236 Q1262 1107 1262 742 Q1262 298 1169 149 Q1076 0 799 0 L130 0 L130 640 Z M284 640 L284 130 L727 130 Q973 130 1044 228 Q1115 326 1115 665 Q1115 1037 1053 1136 Q991 1235 759 1235 L284 1235 L284 756 L718 756 L718 640 L284 640 Z " />
<glyph glyph-name="Thorn" unicode="&#xde;" horiz-adv-x="1208" d="M130 0 L130 1365 L284 1365 L284 1174 L703 1174 L755 1174 Q986 1174 1070 1085 Q1154 996 1154 751 Q1154 515 1066.5 430 Q979 345 738 345 L678 344 L284 344 L284 0 L130 0 Z M284 474 L649 474 Q879 474 943 521.5 Q1007 569 1007 738 Q1007 937 963.5 990 Q920 1043 757 1043 L698 1044 L284 1044 L284 474 Z " />
<glyph glyph-name="eth" unicode="&#xf0;" horiz-adv-x="1036" d="M531 1147 L336 1039 L290 1122 L477 1226 L381 1365 L520 1365 L577 1282 L756 1380 L802 1297 L632 1203 L843 896 Q941 753 941 478 Q941 170 862 78 Q783 -14 518 -14 Q254 -14 175 78 Q96 170 96 478 Q96 786 175 878 Q254 970 519 970 Q587 970 656 964 L531 1147 Z M518 854 Q332 854 287.5 793.5 Q243 733 243 478 Q243 223 287.5 162.5 Q332 102 518 102 Q705 102 749.5 162.5 Q794 223 794 478 Q794 733 749.5 793.5 Q705 854 518 854 Z " />
<glyph glyph-name="thorn" unicode="&#xfe;" horiz-adv-x="1045" d="M123 1365 L263 1365 L263 835 L267 832 Q339 970 574 970 Q787 970 867 861.5 Q947 753 947 464 Q947 195 866 90.5 Q785 -14 578 -14 Q342 -14 266 113 L263 113 L263 -411 L123 -411 L123 1365 Z M535 854 Q367 854 316 781.5 Q265 709 265 470 Q265 249 320 175.5 Q375 102 541 102 Q699 102 749.5 173 Q800 244 800 466 Q800 710 751 782 Q702 854 535 854 Z " />
<glyph glyph-name="onesuperior" unicode="&#xb9;" horiz-adv-x="817" d="M526 1365 L526 546 L424 546 L424 1273 L211 1053 L140 1116 L385 1365 L526 1365 Z " />
<glyph glyph-name="twosuperior" unicode="&#xb2;" horiz-adv-x="826" d="M713 636 L713 544 L80 544 L80 704 Q80 835 135 876.5 Q190 918 393 939 Q552 956 583 982.5 Q614 1009 614 1125 Q614 1227 578 1255.5 Q542 1284 411 1284 Q265 1284 226.5 1260 Q188 1236 188 1145 L189 1077 L81 1077 L82 1126 Q82 1272 148 1322.5 Q214 1373 405 1373 Q591 1373 653.5 1320.5 Q716 1268 716 1112 Q716 965 658.5 914.5 Q601 864 411 846 Q250 831 220 805.5 Q190 780 190 656 L190 636 L713 636 Z " />
<glyph glyph-name="threesuperior" unicode="&#xb3;" horiz-adv-x="826" d="M325 918 L325 1011 L365 1010 Q539 1010 576 1029 Q613 1048 613 1137 Q613 1240 581 1262 Q549 1284 398 1284 Q256 1284 226 1262 Q196 1240 196 1138 L196 1104 L91 1104 L91 1143 Q91 1284 150.5 1328.5 Q210 1373 397 1373 Q590 1373 652.5 1331.5 Q715 1290 715 1162 Q715 991 598 966 Q732 943 732 778 Q732 634 668 586 Q604 538 413 538 Q207 538 142 582.5 Q77 627 77 768 L76 822 L184 822 L184 768 Q184 629 309 629 L449 627 L542 634 Q630 648 630 783 Q630 918 451 918 L369 918 L325 918 Z " />
<glyph glyph-name="multiply" unicode="&#xd7;" horiz-adv-x="1256" d="M533 683 L194 1021 L289 1117 L628 778 L967 1117 L1062 1021 L723 683 L1062 344 L967 249 L628 587 L289 249 L194 344 L533 683 Z " />
<glyph glyph-name="onehalf" unicode="&#xbd;" horiz-adv-x="1925" d="M526 1365 L526 546 L424 546 L424 1273 L211 1053 L140 1116 L385 1365 L526 1365 Z M1477 1365 L551 0 L447 0 L1369 1365 L1477 1365 Z M1812 92 L1812 0 L1179 0 L1179 160 Q1179 291 1233.5 331.5 Q1288 372 1492 394 Q1651 411 1682 437 Q1713 463 1713 579 Q1713 681 1677 709.5 Q1641 738 1510 738 Q1364 738 1325.5 714 Q1287 690 1287 599 L1288 531 L1180 531 L1181 580 Q1181 726 1247 776.5 Q1313 827 1504 827 Q1690 827 1752.5 774.5 Q1815 722 1815 566 Q1815 419 1757 368.5 Q1699 318 1510 301 Q1348 286 1318.5 260.5 Q1289 235 1289 112 L1289 92 L1812 92 Z " />
<glyph glyph-name="onequarter" unicode="&#xbc;" horiz-adv-x="1924" d="M526 1365 L526 546 L424 546 L424 1273 L211 1053 L140 1116 L385 1365 L526 1365 Z M1477 1365 L551 0 L447 0 L1369 1365 L1477 1365 Z M1735 819 L1735 278 L1864 278 L1864 186 L1735 186 L1735 0 L1633 0 L1633 186 L1143 186 L1143 304 L1583 819 L1735 819 Z M1633 278 L1633 738 L1246 278 L1633 278 Z " />
<glyph glyph-name="threequarters" unicode="&#xbe;" horiz-adv-x="1924" d="M325 918 L325 1011 L365 1010 Q539 1010 576 1029 Q613 1048 613 1137 Q613 1240 581 1262 Q549 1284 398 1284 Q256 1284 226 1262 Q196 1240 196 1138 L196 1104 L91 1104 L91 1143 Q91 1284 150.5 1328.5 Q210 1373 397 1373 Q590 1373 652.5 1331.5 Q715 1290 715 1162 Q715 989 598 966 Q732 944 732 778 Q732 634 668 586 Q604 538 413 538 Q207 538 142 582.5 Q77 627 77 768 L76 822 L184 822 L184 768 Q184 629 309 629 L449 627 L542 634 Q630 648 630 783 Q630 918 451 918 L369 918 L325 918 Z M1545 1365 L618 0 L515 0 L1436 1365 L1545 1365 Z M1734 819 L1734 278 L1863 278 L1863 186 L1734 186 L1734 0 L1632 0 L1632 186 L1142 186 L1142 304 L1582 819 L1734 819 Z M1632 278 L1632 738 L1245 278 L1632 278 Z " />
<glyph glyph-name="brokenbar" unicode="&#xa6;" horiz-adv-x="140" d="M0 1365 L140 1365 L140 686 L0 686 L0 1365 Z M0 314 L140 314 L140 -341 L0 -341 L0 314 Z " />
<glyph glyph-name="Scaron" unicode="&#x160;" horiz-adv-x="1146" d="M1066 995 L913 995 Q913 1160 858 1204.5 Q803 1249 599 1249 Q357 1249 287 1206.5 Q217 1164 217 1017 Q217 852 272 816 Q327 780 599 767 Q918 753 1004.5 686 Q1091 619 1091 386 Q1091 134 991.5 60 Q892 -14 552 -14 Q257 -14 159.5 60.5 Q62 135 62 361 L61 422 L214 422 L214 388 Q214 205 270 160.5 Q326 116 557 116 Q822 116 883 160.5 Q944 205 944 398 Q944 523 902.5 564.5 Q861 606 729 614 L569 622 L417 630 Q70 654 70 990 Q70 1223 171 1301 Q272 1379 574 1379 Q880 1379 973 1306.5 Q1066 1234 1066 995 Z M577 1476 L256 1658 L294 1735 L577 1611 L848 1735 L891 1658 L577 1476 Z " />
<glyph glyph-name="Yacute" unicode="&#xdd;" horiz-adv-x="1152" d="M1163 1365 L647 570 L647 0 L493 0 L493 570 L-10 1365 L169 1365 L462 904 L518 815 Q529 799 546 771 L573 726 L577 726 Q595 756 604 771 L631 815 L688 904 L980 1365 L1163 1365 Z M776 1741 L837 1630 L529 1476 L479 1555 L776 1741 Z " />
<glyph glyph-name="scaron" unicode="&#x161;" horiz-adv-x="970" d="M864 706 L724 706 Q724 806 683.5 830 Q643 854 475 854 Q319 854 277 828.5 Q235 803 235 706 Q235 559 376 552 L489 546 L632 539 Q892 526 892 267 Q892 106 806 46 Q720 -14 491 -14 Q256 -14 167.5 43 Q79 100 79 252 L80 304 L225 304 L226 259 Q226 165 274 133.5 Q322 102 463 102 Q636 102 690.5 135 Q745 168 745 273 Q745 424 608 424 Q289 424 188.5 478 Q88 532 88 702 Q88 863 167.5 916.5 Q247 970 484 970 Q864 970 864 741 L864 706 Z M485 1073 L222 1282 L279 1353 L485 1201 L691 1353 L747 1282 L485 1073 Z " />
<glyph glyph-name="yacute" unicode="&#xfd;" horiz-adv-x="796" d="M802 956 L531 -55 Q474 -269 404.5 -349 Q335 -429 206 -429 Q180 -429 139 -422 L139 -306 Q168 -312 188 -313 Q301 -319 356 -130 L383 -36 Q384 -31 392 0 L339 0 L-7 956 L142 956 L289 530 L363 318 L399 211 L436 105 L440 105 L466 211 L491 318 L545 530 L653 956 L802 956 Z M579 1351 L651 1253 L356 1072 L308 1146 L579 1351 Z " />
<glyph glyph-name="currency" unicode="&#xa4;" horiz-adv-x="1365" d="M119 250 L309 443 Q205 579 205 733 Q205 885 309 1024 L114 1217 L194 1297 L387 1104 Q530 1211 686 1211 Q837 1211 976 1105 L1170 1296 L1249 1217 L1057 1026 Q1162 884 1162 732 Q1162 583 1059 443 L1252 250 L1173 170 L980 363 Q843 258 683 258 Q537 258 390 363 L198 170 L119 250 Z M684 1081 Q540 1081 439 979 Q338 877 338 733 Q338 591 439.5 489.5 Q541 388 684 388 Q826 388 927.5 489.5 Q1029 591 1029 733 Q1029 878 928 979.5 Q827 1081 684 1081 Z " />
</font>
</svg>
